<?xml version="1.0" standalone="no"?>
<!DOCTYPE svg PUBLIC "-//W3C//DTD SVG 1.1//EN" "http://www.w3.org/Graphics/SVG/1.1/DTD/svg11.dtd" >
<svg xmlns="http://www.w3.org/2000/svg">
<metadata>Generated by IcoMoon</metadata>
<defs>
<font id="icomoon" horiz-adv-x="1024">
<font-face units-per-em="1024" ascent="960" descent="-64" />
<missing-glyph horiz-adv-x="1024" />
<glyph unicode="&#x20;" horiz-adv-x="512" d="" />
<glyph unicode="&#xe900;" glyph-name="api" horiz-adv-x="1081" d="M810.922 285.125l-228.825 396.627c-13.174-4.029-27.16-6.197-41.653-6.197-15.186 0-29.817 2.38-43.539 6.788l-228.053-394.999c7.136-13.915 12.046-29.16 14.259-45.265h514.664c2.096 15.253 6.611 29.734 13.145 43.045zM851.992 335.303c23.995 18.471 54.052 29.454 86.675 29.454 78.547 0 142.222-63.675 142.222-142.222s-63.675-142.222-142.222-142.222c-65.624 0-120.868 44.447-137.269 104.879h-521.907c-16.401-60.432-71.645-104.879-137.269-104.879-78.547 0-142.222 63.675-142.222 142.222s63.675 142.222 142.222 142.222c33.236 0 63.81-11.401 88.023-30.505l217.092 376.014c-30.086 26.077-49.115 64.572-49.115 107.512 0 78.547 63.675 142.222 142.222 142.222s142.222-63.675 142.222-142.222c0-42.501-18.643-80.648-48.197-106.709l217.522-375.766zM326.106 900.325c12.596 6.559 27.864 1.14 34.102-12.104s1.084-29.298-11.512-35.857c-146.338-76.204-240.907-233.144-240.907-407.923 0-14.779-11.394-26.76-25.45-26.76s-25.45 11.981-25.45 26.76c0 195.32 105.701 370.734 269.217 455.884zM257.81 31.849c-11.399 8.647-13.973 25.373-5.749 37.359s24.131 14.692 35.53 6.044c18.176-13.789 37.342-26.078 57.328-36.743 60.067-32.054 126.616-48.989 195.525-48.989 91.651 0 178.942 30.004 251.824 84.953 11.423 8.612 27.323 5.857 35.513-6.154s5.57-28.729-5.852-37.341c-81.459-61.415-179.104-94.979-281.484-94.979-76.961 0-151.396 18.941-218.561 54.783-22.342 11.922-43.762 25.657-64.074 41.065zM1024 444.441c0-14.779-11.394-26.76-25.45-26.76s-25.45 11.981-25.45 26.76c0 173.4-93.075 329.309-237.633 406.201-12.542 6.671-17.566 22.77-11.221 35.958s21.656 18.47 34.198 11.799c161.524-85.916 265.557-260.18 265.557-453.958z" />
<glyph unicode="&#xe901;" glyph-name="auth" horiz-adv-x="1081" d="M545.964 308.399c-23.849-15.272-38.268-41.647-38.252-69.966v-269.007c0-3.573 0.222-7.105 0.665-10.567h-425.282c-45.892 0-83.095 37.203-83.095 83.095v91.682c0 96.501 78.248 174.75 174.763 174.75l371.201 0.014zM375.66 959.784h132.44c99.437 0 180.040-80.603 180.040-180.040v-164.21c0-99.437-80.602-180.040-180.040-180.040h-132.44c-99.437 0-180.040 80.603-180.040 180.040v164.21c0 99.437 80.603 180.040 180.040 180.040zM813.878 89.374c-0.692-2.673-1.066-5.498-1.066-8.406v-32.767c0-8.815 3.502-17.27 9.735-23.503s14.688-9.735 23.503-9.735h0.374c18.357 0 33.238 14.881 33.238 33.238v32.767c0 2.908-0.374 5.734-1.066 8.406 21.226 11.544 34.456 33.755 34.498 57.917 0 36.548-29.928 66.172-66.864 66.172-36.922 0-66.85-29.624-66.85-66.172 0.042-24.162 13.272-46.373 34.498-57.917zM1011.977-51.21h-348.668c-38.736 0-67.792 29.111-67.792 67.93v228.069c0 38.819 29.056 67.93 67.792 67.93h348.668c38.75 0 67.806-29.111 67.806-67.93v-223.208c4.847-43.68-29.056-72.792-67.82-72.792h0.014zM996.673 279.634h-300.888v151.94c0 58.818 48.528 112.733 101.916 112.733h92.194c58.236 0 101.903-49.026 101.903-112.733v-151.926h4.847l0.028-0.014zM762.663 313.939h167.146v101.044c0 33.681-21.328 63.152-49.788 63.152h-67.57c-28.446 0-49.788-29.471-49.788-63.152v-101.044z" />
<glyph unicode="&#xe902;" glyph-name="coupon" horiz-adv-x="1463" d="M0.572 678.106c0 28.979 4.94 49.648 14.266 62.171 9.508 12.348 30.444 18.381 63.273 18.381h201.891v-805.184h-86.683c-23.224 0-45.993 0.181-68.575 0.732-22.769 0.362-38.13 0.732-46.543 0.732-28.435-1.102-48.463 3.747-60.071 14.628-11.523 10.696-17.468 31.267-17.468 61.264v231.785c0 11.797 2.009 20.76 5.581 26.426 3.565 5.852 11.246 9.969 22.854 12.166 4.297 0 9.878 1.647 17.468 4.841 7.22 3.385 14.628 8.596 21.947 15.549 7.311 6.949 13.716 15.907 18.927 27.339 5.211 11.154 7.952 24.779 7.952 41.054 0 24.689-6.488 43.887-19.659 57.879-13.163 13.897-27.248 22.128-42.058 24.047-11.433 2.1-19.937 5.762-25.148 10.513-5.302 5.029-7.952 13.261-7.952 25.050v170.627zM131.602 831.078v41.967c0 21.303 8.314 41.331 24.5 59.526 16.183 18.192 33.924 27.429 52.851 27.429h217.985v-128.922h-295.336zM1418.374 481.697c-8.224-2.281-14.448-6.767-18.192-13.896-3.385-6.767-5.581-14.629-5.581-23.043 0-8.776 2.105-17.007 5.581-24.959 3.745-8.233 9.969-13.902 18.192-17.008 8.414-3.382 15.18-9.787 19.848-19.294 4.84-9.781 7.492-19.84 7.861-30.724 0.544-10.693-0.915-21.032-3.934-30.54-3.202-9.599-7.864-16.639-14.078-21.027-21.032-12.89-31.455-27.338-31.455-43.433s10.331-32.368 31.455-48.189c4.297-3.385 8.043-9.328 11.79-17.642 3.571-8.782 5.399-17.287 5.399-26.063 0-8.593-1.918-15.912-6.222-22.309-4.298-6.586-11.608-9.788-22.121-9.788h-85.22c-6.034 0-9.606 0.551-9.969 1.829-0.551 1.102 0.182 2.839 2.1 5.399 2.107 2.832 4.667 5.764 7.869 9.146 3.196 3.194 5.756 6.949 8.043 11.246 5.211 14.992 5.211 27.885 0 38.585-5.393 10.884-14.078 19.839-26.976 27.338-8.408 4.298-14.629 11.065-18.012 20.391-3.747 8.958-5.211 18.375-4.661 28.071 0.362 9.781 2.1 18.195 5.394 25.694 3.202 7.681 8.050 13.072 14.083 16.275 8.596 3.202 14.81 9.146 18.927 17.649 4.297 8.413 6.397 17.642 6.397 27.338 0 9.69-1.827 18.564-4.659 26.607-3.202 8.043-7.864 13.716-14.448 16.827-8.231 4.479-14.81 10.693-19.659 19.477-4.758 8.226-7.038 17.825-7.038 28.614 0 10.884 1.918 21.215 6.214 31.456 4.297 10.24 10.884 18.562 20.391 24.959 6.586 4.298 11.797 10.15 15.913 17.649 4.479 7.681 6.397 15.542 7.311 24.138 0.551 8.684-1.464 16.915-4.849 24.959-3.745 8.141-10.331 14.726-19.839 20.119-10.331 5.302-18.195 13.261-22.862 23.315-4.659 10.24-7.129 20.85-7.129 31.455 0 10.884 2.47 20.941 7.129 30.722 4.667 9.508 11.253 17.189 19.659 22.679 17.83 9.508 27.889 22.769 29.265 39.317 1.644 16.637 0.362 32.097-3.936 45.81-3.382 10.876-9.508 20.481-18.744 29.076-9.599 8.687-21.757 12.892-36.394 12.892h-757.815v127.188h888.937c7.318 0 13.353-2.741 18.564-8.043 5.391-5.399 8.958-11.796 10.513-19.386 1.644-7.5 1.102-15.271-1.647-23.315-2.47-7.959-7.494-14.908-14.993-20.3-6.405-5.4-11.978-12.167-16.645-20.852-4.841-8.596-7.129-17.371-8.043-26.606-0.37-9.237 1.094-18.195 4.117-27.431 3.013-9.054 8.776-15.821 17.278-20.118 11.797-6.399 20.391-15.271 26.056-26.426 5.854-11.246 8.874-22.491 8.874-33.646 0-11.435-3.020-21.856-8.776-31.455-5.764-9.781-13.723-16.827-24.325-20.943-11.616-4.479-20.21-10.514-25.33-18.557-5.391-8.14-8.043-17.007-8.776-26.515-0.55-9.697 1.466-19.115 6.035-28.163 4.849-9.237 12.529-17.196 23.041-23.594 10.514-6.214 18.383-14.81 23.043-25.694 4.667-10.61 6.584-21.303 6.214-32.187-0.543-10.693-3.194-20.571-7.861-29.808-4.841-8.952-11.706-14.163-21.305-15.266v0 0zM1213.196 505.841c-12.529-3.202-22.31-9.516-29.265-18.381-6.767-9.325-10.331-18.562-11.063-28.432-0.365-9.606 2.288-19.296 7.869-29.077 6.034-9.516 14.448-16.462 26.236-20.76 10.338-4.479 18.381-10.881 23.594-19.288 5.393-8.782 8.232-17.832 8.776-27.528 0.551-9.689-1.458-18.924-5.573-27.338-4.117-8.596-10.519-15.18-18.925-19.289-26.245-13.080-40.049-28.621-40.873-46.816-1.285-18.2 8.776-32.64 29.808-43.614 9.508-4.297 17.189-10.881 22.853-20.027 5.852-9.147 8.965-18.746 9.606-29.077 0.544-9.969-1.464-19.294-5.764-27.158-4.114-8.413-11.063-13.713-20.391-17.189-12.71-3.202-22.309-8.955-29.438-17.649-6.584-8.407-10.15-17.641-10.701-27.15-0.732-9.969 1.918-19.477 7.861-29.083 5.764-9.78 14.999-17.823 27.52-24.318 8.603-4.297 14.448-11.063 18.202-20.028 3.745-9.32 5.029-18.012 4.114-26.606-1.282-8.596-4.114-16.457-8.963-23.224-4.66-7.129-11.246-10.513-19.839-10.513h-825.667v805.365h835.174c8.413 0 15.18-3.293 20.021-10.514 4.667-6.954 7.137-14.636 7.869-23.322 0.544-8.684-1.464-17.189-5.764-25.691-4.114-8.505-11.063-14.539-20.391-17.649-9.508-3.286-17.189-8.685-23.041-16.185-5.852-7.401-9.146-15.905-10.331-24.868-0.915-9.229 1.277-17.921 6.397-26.607 5.399-8.685 14.265-15.089 26.976-19.289 9.328-4.303 17.189-10.701 22.86-19.386 5.665-8.685 9.146-17.377 9.508-26.426 0.551-9.417-1.644-17.83-6.214-26.063-4.667-7.859-12.348-13.622-23.042-16.817v0 0zM832.641 397.762c-5.030 0-10.701 0.545-16.645 1.647-5.671 1.277-6.768 4.479-3.936 9.78 1.283 1.92 6.224 9.599 15.18 22.498 8.965 13.072 18.746 26.606 29.99 41.054 11.065 14.629 21.034 28.254 30.912 41.055 9.328 12.89 15.172 20.933 17.189 24.318 5.393 8.413 2.1 18.562-9.508 30.449-1.926 2.198-6.224 5.491-12.71 9.879-6.035 4.205-11.888 7.401-17.099 9.508-8.593 3.103-14.636 3.747-18.381 1.556-3.382-2.107-8.043-6.858-13.253-14.448-2.107-3.111-7.318-10.972-15.914-23.23-8.322-12.612-17.278-25.601-26.795-39.589-9.417-14.076-18.192-26.606-26.053-37.669-8.043-11.435-12.438-18.012-13.353-20.302-2.009-4.114-6.126-5.943-11.978-4.847-5.762 1.102-9.599 3.752-11.608 8.049-1.285 2.1-5.852 8.413-14.357 18.746-8.505 9.961-17.558 21.395-26.886 34.467-9.326 13.081-18.555 24.779-27.52 36.214-9.054 11.334-14.998 19.016-18.283 23.495-9.516 18.2-19.477 24.047-29.899 17.558-7.409-4.208-14.085-8.776-19.937-13.533-5.762-5.030-11.246-9.054-16.457-12.348-10.513-7.311-12.069-17.098-4.758-28.888 17.83-21.395 33.741-41.243 47.457-59.617 11.517-14.998 22.491-29.265 33.193-43.614 10.422-13.721 16.728-21.765 18.745-24.142 2.19-4.117 0-6.397-6.313-6.397h-18.745c-5.211 0-12.984-0.182-22.854-0.732-10.15-0.551-19.387-0.37-27.889 0.732-8.324 0-15.271-1.918-20.574-6.405-5.12-4.117-6.767-9.508-4.576-15.905 1.011-4.486 1.556-10.882 1.556-19.296v-19.659c0-5.211 1.464-8.231 4.758-8.776 3.202-0.461 6.767-0.641 11.063-0.641h91.616c12.438 0 18.745-2.652 18.745-8.050v-30.535c0-5.581-0.915-8.231-3.103-8.231h-105.792c-6.222 1.094-10.338-0.551-12.528-4.661-2.009-4.484-3.564-9.326-4.758-14.636-1.097-5.573-1.097-10.513 0-15.172 1.193-5.029 1.464-9.146 1.464-12.167 0-14.076 6.858-21.024 20.574-21.024h94.816c5.491 0 8.505-0.732 9.418-2.288 1.011-1.647 1.647-5.211 1.647-10.513 1.102-5.399 1.464-14.998 0.732-28.895-0.453-14.083-0.823-23.132-0.823-27.617 0-11.79 6.858-17.642 20.481-17.642h50.659c8.407 0 12.702 2.65 12.702 8.224v64.281c0 10.876 4.849 16.275 14.085 16.275h14.266c7.311 0 15.725 0.182 24.5 0.915 9.146 0.362 17.649 0.732 25.88 0.732h20.571c14.629 0 22.311 5.394 22.311 15.907v35.57c0 9.787-5.211 14.628-15.725 14.628h-91.804c-10.331-2.281-15.912 0-15.912 6.405 0 3.013-0.182 7.129-0.734 11.978-0.543 4.841-0.634 9.146-0.634 13.625 0 4.117 1.647 7.499 5.393 9.508 3.843 2.288 7.77 3.385 11.887 3.385h93.261c10.333 0 15.731 3.564 15.731 11.243v38.676c0 4.297-1.827 8.413-5.581 12.71-3.747 4.486-8.224 6.405-13.346 6.405l-53.761-0.002z" />
<glyph unicode="&#xe903;" glyph-name="developer" d="M700.632 663.579c0-133.944-108.583-242.526-242.526-242.526s-242.526 108.583-242.526 242.526c0 133.944 108.583 242.526 242.526 242.526s242.526-108.583 242.526-242.526zM644.837 390.38c12.58-7.952 16.332-24.596 8.38-37.177s-24.596-16.332-37.177-8.38c-50.988 32.229-112.615 49.282-184.883 49.282-228.22 0-373.579-178.715-373.579-404.013 0-14.883-12.065-26.947-26.947-26.947s-26.947 12.065-26.947 26.947c0 252.893 166.75 457.908 427.474 457.908 82.25 0 153.879-19.82 213.679-57.62zM997.967 217.475c10.060 0.2 18.46-8.117 21.053-21.243 0.207-1.102 5.082-25.452 4.978-44.691 0-19.239-4.874-43.689-5.082-44.691-2.593-13.127-10.89-21.444-21.053-21.243h-2.074c-34.743 0-63.056-26.554-63.056-59.321 0-10.822 5.393-22.646 5.497-22.746 5.289-11.624 1.245-25.251-9.645-32.466l-0.622-0.401-62.537-32.466c-3.63-1.503-7.467-2.204-11.408-2.204-8.712-0.1-17.008 3.307-23.024 9.219-7.571 7.816-31.528 28.057-51.025 28.057-19.394 0-43.662-20.341-50.61-27.556-9.023-8.718-22.609-11.423-34.432-6.814l-0.622 0.301-59.426 31.264-0.519 0.401c-10.993 7.114-15.038 20.842-9.749 32.466 0.104 0.1 5.497 11.924 5.497 22.746 0 32.666-28.313 59.321-63.056 59.321h-2.385c-9.956 0-18.046 8.317-20.638 21.243-0.207 1.002-5.082 25.452-5.082 44.691s4.874 43.689 5.082 44.691c2.696 13.127 10.89 21.444 21.053 21.243h2.074c34.743 0 63.056 26.554 63.056 59.321 0 10.822-5.393 22.646-5.497 22.746-5.185 11.724-1.141 25.251 9.749 32.466l0.622 0.401 63.47 32.767c11.823 4.509 25.305 1.904 34.328-6.613 7.363-7.315 30.906-26.354 49.884-26.354 18.771 0 42.106 18.638 49.573 25.853 9.126 8.517 22.609 11.022 34.432 6.413l0.622-0.301 60.67-31.564 0.622-0.401c10.89-7.215 14.934-20.842 9.645-32.466-3.215-7.215-5.082-14.93-5.497-22.746 0-32.666 28.313-59.321 63.056-59.321h2.074zM781.474 71.164c44.648 0 80.842 36.194 80.842 80.842s-36.194 80.842-80.842 80.842c-44.648 0-80.842-36.194-80.842-80.842s36.194-80.842 80.842-80.842z" />
<glyph unicode="&#xe905;" glyph-name="devuser" horiz-adv-x="1144" d="M395.3 427.578v0.229c0 15.221-12.131 27.696-27.010 27.696-98.081 0-177.851 87.209-177.851 194.56 0 107.237 79.77 194.56 177.851 194.56 14.993 0 27.010 12.36 27.010 27.696s-12.131 27.696-27.010 27.696c-127.837 0-231.87-112.158-231.87-249.952 0-91.901 46.351-172.128 115.134-215.618-142.601-51.73-246.748-195.018-251.555-364.972v-15.45c1.488-13.848 12.933-24.492 26.895-24.492 14.993 0 27.010 12.36 27.010 27.696 0 188.952 140.999 342.654 314.386 342.654 14.993 0 27.010 12.36 27.010 27.696zM817.152 415.218c87.666 49.212 147.293 144.432 147.293 253.844 0 159.883-127.036 289.894-283.142 289.894s-283.142-130.012-283.142-289.894c0-110.441 60.771-206.691 149.811-255.56-185.404-58.482-320.566-235.418-320.566-444.169 0-15.336 12.131-27.696 27.010-27.696s847.938 0 862.816 0c14.993 0 27.010 12.36 27.010 27.696 0.229 211.155-138.252 389.578-327.090 445.886z" />
<glyph unicode="&#xe906;" glyph-name="follower" horiz-adv-x="1081" d="M508.377 392.639c0.735-302.118 1.251-454.331 1.546-456.639h-425.282c-45.892 0-83.095 37.203-83.095 83.095l-1.546 198.794c0 96.501 78.248 174.75 174.763 174.75 140.007 0 245.013 0 315.017 0 4.133 0 10.332 0 18.597 0zM337.711 960h113.778c94.257 0 170.667-76.41 170.667-170.667v-113.778c0-46.049-18.238-87.838-47.884-118.539-31.036-32.14-74.575-52.127-122.783-52.127h-113.778c-94.257 0-170.667 76.41-170.667 170.667v113.778c0 94.257 76.41 170.667 170.667 170.667zM1077.746 333.16c0-44.292 0-194.789 0-283.373 4.847-68.281-29.056-113.786-67.82-113.786h-348.654c-38.736 0-67.792 45.506-67.792 106.188v356.514c0 60.682 29.056 106.188 67.792 106.188 83.652 0 203.28 0 245.106 0l0.185-143.322c0.020-15.695 12.749-28.408 28.444-28.408h142.738zM689.024 146.152l119.305-128.343c20.788 56.037 86.767 164.496 166.303 242.224l-7.231 18.076c-86.767-56.037-150.035-127.439-178.053-162.688l-69.594 56.941-30.73-26.211zM1078.209 374.569c-22.67 0-15.843 0-61.182 0-13.12 0-26.241 0-39.361 0v0c-15.709 0-28.444 12.735-28.444 28.444 0 33.958 0 67.917 0 101.875l128.988-130.319z" />
<glyph unicode="&#xe907;" glyph-name="group" d="M358.4 960h307.2c28.277 0 51.2-22.923 51.2-51.2v-307.2c0-28.277-22.923-51.2-51.2-51.2h-307.2c-28.277 0-51.2 22.923-51.2 51.2v307.2c0 28.277 22.923 51.2 51.2 51.2zM460.8 550.4h102.4v-153.6h-102.4v153.6zM51.2 243.2h204.8c28.277 0 51.2-22.923 51.2-51.2v-204.8c0-28.277-22.923-51.2-51.2-51.2h-204.8c-28.277 0-51.2 22.923-51.2 51.2v204.8c0 28.277 22.923 51.2 51.2 51.2zM409.6 243.2h204.8c28.277 0 51.2-22.923 51.2-51.2v-204.8c0-28.277-22.923-51.2-51.2-51.2h-204.8c-28.277 0-51.2 22.923-51.2 51.2v204.8c0 28.277 22.923 51.2 51.2 51.2zM768 243.2h204.8c28.277 0 51.2-22.923 51.2-51.2v-204.8c0-28.277-22.923-51.2-51.2-51.2h-204.8c-28.277 0-51.2 22.923-51.2 51.2v204.8c0 28.277 22.923 51.2 51.2 51.2zM179.2 243.2h-51.2v153.6h51.2v-153.6zM128 243.2v153.6h51.2v-153.6h-51.2zM896 243.2h-51.2v153.6h51.2v-153.6zM844.8 243.2v153.6h51.2v-153.6h-51.2zM128.069 371.2v51.2h767.742v-51.2h-767.742zM128.069 422.4h767.742v-51.2h-767.742v51.2z" />
<glyph unicode="&#xe908;" glyph-name="home" horiz-adv-x="1092" d="M615.882-63.467v272.629c0 37.411-30.532 68.172-68.195 68.172h-68.409c-37.976 0-68.195-30.522-68.195-68.172v-272.634c-66.821 0.001-134.223 0.004-203.329 0.014-42.748 0.005-41.329 22.459-59.951 63.89-6.524 14.516-8.169 30.117-8.155 46.104 0.093 120.212-0.579 240.491-0.579 360.702v9.736c-15.294 0-70.703-2.158-85.21-2.743-14.313-0.58-27.211 1.419-36.9 14.328-11.011 14.672-18.624 35.472-16.644 54.255 1.826 17.359 9.371 31.62 21.65 43.199 147.521 139.070 297.736 273.688 445.221 412.805 30.080 28.372 64.633 28.179 94.686-0.184 147.119-138.848 317.624-265.353 464.822-404.102 28.161-26.548 24.902-81.165-0.284-108.816-6.997-7.68-15.263-11.598-25.403-11.485-17.416 0.189-90.977 3.893-109.365 3.893v-10.886c0-119.976-0.119-246.832 0-366.808 0.035-36.123-12.456-65.556-39.751-87.309-16.059-12.795-3.434-15.694-23.369-16.495-2.427-0.099-4.862-0.085-7.293-0.085-69.801-0.002-137.864-0.005-205.345-0.008z" />
<glyph unicode="&#xe909;" glyph-name="kcs" horiz-adv-x="931" d="M46.545 314.954c11.425 0 20.927-8.233 22.898-19.089l0.375-4.183v-53.913c0-6.357 2.927-12.367 7.94-16.471l3.252-2.221 372.841-210.231c7.158-4.036 16.048-4.036 23.207 0l257.32 145.093c11.196 6.313 25.39 2.355 31.703-8.841s2.355-25.39-8.841-31.703l-257.32-145.093c-19.214-10.834-42.383-11.917-62.388-3.25l-6.541 3.25-372.841 210.231c-19.573 11.036-32.382 30.698-34.549 52.604l-0.327 6.633v53.913c0 12.853 10.42 23.273 23.273 23.273zM734.631 531.374c12.878 0.534 25.066-8.13 28.938-21.47l0.972-4.614 0.296-4.464v-208.894c0-19.811-9.802-37.803-25.336-48.408l-5.384-3.254-206.662-108.265c-2.544-1.378-5.155-2.308-7.769-2.833l-3.916-0.488c-14.309-0.712-27.766 10.221-29.91 25.889l-0.296 4.385v209.343c0 19.811 9.425 37.803 25.223 48.408l5.497 3.254 206.662 108.265c2.544 1.318 5.155 2.204 7.769 2.697l3.916 0.448zM194.909 531.827l3.916-0.45 3.911-1.040 3.859-1.658 206.662-107.816c17.175-8.895 28.318-25.795 30.375-45.133l0.345-6.529v-209.792c0-16.472-12.265-28.837-26.333-30.362l-3.873-0.142c-2.602 0.091-5.231 0.561-7.826 1.449l-3.859 1.652-206.662 107.816c-17.175 8.895-28.318 25.795-30.375 45.133l-0.345 6.529v210.241c0 16.472 12.265 28.595 26.333 29.992l3.873 0.11zM627.435 855.798l245.326-138.33c19.573-11.036 32.382-30.698 34.549-52.604l0.327-6.633v-420.463c0-22.291-11.030-42.976-29.211-55.673l-5.665-3.563-45.632-25.73c-11.196-6.313-25.39-2.355-31.703 8.841-5.612 9.952-3.107 22.273 5.382 29.322l3.46 2.381 45.632 25.73c5.814 3.278 9.71 8.776 10.847 14.932l0.345 3.76v420.463c0 7.628-4.215 14.758-11.192 18.692l-245.326 138.33c-11.196 6.313-15.154 20.507-8.841 31.703s20.507 15.154 31.703 8.841zM486.602 933.477l6.776-2.528 6.541-3.25 46.744-26.357c11.196-6.313 15.154-20.507 8.841-31.703-5.612-9.952-17.45-14.185-27.875-10.569l-3.828 1.728-46.744 26.357c-5.727 3.229-12.562 3.875-18.732 1.937l-4.475-1.937-372.841-210.231c-5.814-3.278-9.71-8.776-10.847-14.932l-0.345-3.76v-277.994c0-12.853-10.42-23.273-23.273-23.273-11.425 0-20.927 8.233-22.898 19.089l-0.375 4.183v277.994c0 22.291 11.030 42.976 29.211 55.673l5.665 3.563 372.841 210.231c17.079 9.63 37.283 11.556 55.612 5.778zM465.495 766.256c15.273 0 30.028-3.251 42.124-9.677v0l210.412-106.033c17.816-9.007 28.195-25.959 26.134-44.856l0.096 2.427 0.156-2.777c-0.236-12.801-6.409-24.677-16.682-33.135l-4.648-3.409-5.118-2.946-209.911-105.325c-12.534-6.654-27.29-9.904-42.563-9.904s-30.028 3.251-42.089 9.66v0l-210.448 105.601c-17.479 8.837-27.237 25.69-26.232 41.444v0l0.054 5.963c1.198 15.731 10.735 29.899 26.241 37.738v0l209.911 105.325c12.534 6.654 27.29 9.904 42.563 9.904zM465.495 719.71c-8.044 0-15.347-1.609-21.213-4.716v0l-210.856-105.79c-0.115-0.060-0.176-0.114-0.208-0.215v0l0.079-1.319 211.458-106.034c5.392-2.862 12.695-4.471 20.739-4.471s15.347 1.609 21.213 4.716v0l210.323 105.538c0.365 0.184 0.562 0.231 0.67 0.147v0l0.201-1.87-0.196 3.098-0.648 0.199-210.824 106.246c-5.392 2.862-12.695 4.471-20.739 4.471zM465.514 673.165c6.085 0 12.171-1.081 17.242-3.458v0l114.61-51.004c5.325-2.377 7.86-6.267 7.353-10.374 0.507-3.89-2.028-7.996-7.353-10.374v0l-114.61-50.788c-5.071-2.377-11.157-3.458-17.242-3.458s-12.171 1.081-17.242 3.458v0l-114.61 50.788c-5.325 2.377-7.607 6.484-7.353 10.59-0.254 3.89 2.028 7.996 7.353 10.374v0l114.61 50.788c5.071 2.377 11.157 3.458 17.242 3.458z" />
<glyph unicode="&#xe90a;" glyph-name="manage" horiz-adv-x="1396" d="M139.636 913.455c0-51.413-41.678-93.091-93.091-93.091s-93.091 41.678-93.091 93.091c0 51.413 41.678 93.091 93.091 93.091s93.091-41.678 93.091-93.091zM139.636 448c0-51.413-41.678-93.091-93.091-93.091s-93.091 41.678-93.091 93.091c0 51.413 41.678 93.091 93.091 93.091s93.091-41.678 93.091-93.091zM139.636-17.455c0-51.413-41.678-93.091-93.091-93.091s-93.091 41.678-93.091 93.091c0 51.413 41.678 93.091 93.091 93.091s93.091-41.678 93.091-93.091zM232.727 960h1024c25.706 0 46.545-20.839 46.545-46.545s-20.839-46.545-46.545-46.545h-1024c-25.706 0-46.545 20.839-46.545 46.545s20.839 46.545 46.545 46.545zM232.727 494.545h465.455c25.706 0 46.545-20.839 46.545-46.545s-20.839-46.545-46.545-46.545h-465.455c-25.706 0-46.545 20.839-46.545 46.545s20.839 46.545 46.545 46.545zM232.727 29.091h465.455c25.706 0 46.545-20.839 46.545-46.545s-20.839-46.545-46.545-46.545h-465.455c-25.706 0-46.545 20.839-46.545 46.545s20.839 46.545 46.545 46.545zM1361.39 361.41c13.515 0.303 24.8-12.267 28.283-32.106 0.279-1.666 6.827-38.467 6.688-67.544 0-29.077-6.548-66.030-6.827-67.544-3.483-19.839-14.629-32.409-28.283-32.106h-2.787c-46.675 0-84.711-40.133-84.711-89.655 0-16.356 7.245-34.226 7.384-34.378 7.106-17.568 1.672-38.164-12.957-49.068l-0.836-0.606-84.014-49.068c-4.876-2.272-10.032-3.332-15.326-3.332-11.704-0.151-22.85 4.998-30.931 13.933-10.171 11.813-42.356 42.404-68.549 42.404-26.054 0-58.657-30.743-67.992-41.647-12.121-13.176-30.373-17.265-46.257-10.298l-0.836 0.454-79.835 47.251-0.697 0.606c-14.769 10.753-20.202 31.5-13.097 49.068 0.139 0.151 7.384 18.022 7.384 34.378 0 49.371-38.036 89.655-84.711 89.655h-3.205c-13.375 0-24.243 12.57-27.726 32.106-0.279 1.514-6.827 38.467-6.827 67.544s6.548 66.030 6.827 67.544c3.623 19.839 14.629 32.409 28.283 32.106h2.787c46.675 0 84.711 40.133 84.711 89.655 0 16.356-7.245 34.226-7.384 34.378-6.966 17.719-1.533 38.164 13.097 49.068l0.836 0.606 85.268 49.522c15.883 6.815 33.996 2.877 46.117-9.995 9.892-11.055 41.52-39.83 67.016-39.83 25.218 0 56.567 28.169 66.598 39.073 12.261 12.873 30.373 16.659 46.257 9.692l0.836-0.454 81.507-47.705 0.836-0.606c14.629-10.904 20.063-31.5 12.957-49.068-4.319-10.904-6.827-22.565-7.384-34.378 0-49.371 38.036-89.655 84.711-89.655h2.787zM1070.239 72.75c102.825 0 186.182 83.356 186.182 186.182s-83.356 186.182-186.182 186.182c-102.825 0-186.182-83.356-186.182-186.182s83.356-186.182 186.182-186.182z" />
<glyph unicode="&#xe90b;" glyph-name="official" horiz-adv-x="1078" d="M575.892 362.378c34.946 7.689 83.871 53.822 145.609 139.497l57.16-16.476c-37.276-48.33-75.717-90.069-114.157-123.021 78.046 2.197 127.935 8.571 201.322 15.161-13.359 19.806-26.339 39.638-38.321 58.683l51.808 19.221c32.296-48.769 53.763-87.312 90.947-154.683l-58.781 5.030c-7.51 9.356-11.636 14.874-19.758 24.266-96.684-7.689-188.354-14.91-306.006-19.304l-9.822 51.625zM876.197 97.664v17.574h-207.921v-17.574h-53.942v184.531h315.68v-184.531h-53.817zM876.197 154.781v87.872h-207.921v-87.872h207.921zM548.053 743.961v-53.533h-159.15v-150.882h176.326v-54.053h-176.326v-145.743h-54.082v145.743h-173.802v54.053h173.802v150.882h-155.481v53.533h368.713zM242.318 553.927c-14.886 38.111-30.917 71.603-46.948 102.785l46.948 23.73c16.031-31.182 32.062-65.829 46.948-102.785l-46.948-23.73zM481.066 553.927l-45.23 26.039c21.756 34.647 37.787 68.138 50.383 101.63l46.375-24.885c-12.596-34.647-30.917-69.293-51.528-102.785zM1023.368 418.921c0 14.883 12.065 26.947 26.947 26.947s26.947-12.065 26.947-26.947v-347.895c0-74.413-60.324-134.737-134.737-134.737h-404.855c-14.883 0-26.947 12.065-26.947 26.947s12.065 26.947 26.947 26.947h404.855c44.648 0 80.842 36.194 80.842 80.842v347.895zM107.158 414.237c0-14.883-12.065-26.947-26.947-26.947s-26.947 12.065-26.947 26.947v357.421c0 74.413 60.324 134.737 134.737 134.737h406.868c14.883 0 26.947-12.065 26.947-26.947s-12.065-26.947-26.947-26.947h-406.868c-44.648 0-80.842-36.194-80.842-80.842v-357.421z" />
<glyph unicode="&#xe90c;" glyph-name="opermsg" d="M960.79 391.111c31.419 0 56.889-25.47 56.889-56.889v-233.877c0-31.419-25.47-56.889-56.889-56.889h-224.801l-129.194-92.184v92.184h-37.907c-31.419 0-56.889 25.47-56.889 56.889v233.877c0 31.419 25.47 56.889 56.889 56.889h391.901zM638.42 264.691c-17.455 0-31.605-14.15-31.605-31.605s14.15-31.605 31.605-31.605c17.455 0 31.605 14.15 31.605 31.605s-14.15 31.605-31.605 31.605zM764.84 264.691c-17.455 0-31.605-14.15-31.605-31.605s14.15-31.605 31.605-31.605c17.455 0 31.605 14.15 31.605 31.605s-14.15 31.605-31.605 31.605zM891.259 264.691c-17.455 0-31.605-14.15-31.605-31.605s14.15-31.605 31.605-31.605c17.455 0 31.605 14.15 31.605 31.605s-14.15 31.605-31.605 31.605zM398.222 960c137.851 0 249.553-112.201 249.553-250.548 0-81.143-38.782-155.041-100.926-201.322 37.144-14.986 71.364-35.365 101.788-60.112l-136.637-0.018c-31.419 0-56.889-25.47-56.889-56.889v0-272.988c0-2.605 0.175-5.169 0.514-7.681l-429.077 0.017c-14.662 0-26.548 11.886-26.548 26.548 0 166.044 101.583 311.407 249.595 371.123-62.144 46.281-100.926 120.179-100.926 201.322 0 138.348 111.702 250.548 249.553 250.548z" />
<glyph unicode="&#xe90d;" glyph-name="search" d="M765.105 116.125c-80.46-63.476-182.051-101.356-292.49-101.356-261.018 0-472.615 211.597-472.615 472.615s211.597 472.615 472.615 472.615c261.018 0 472.615-211.597 472.615-472.615 0-110.439-37.88-212.030-101.356-292.49l164.277-164.277c21.804-21.804 21.998-56.961 0.094-78.864-21.752-21.752-57.251-21.518-78.864 0.094l-164.277 164.277zM787.709 251.060c49.45 65.827 78.753 147.654 78.753 236.324 0 217.515-176.331 393.846-393.846 393.846s-393.846-176.331-393.846-393.846c0-217.515 176.331-393.846 393.846-393.846 88.671 0 170.497 29.303 236.324 78.753-0.016 0.016 0.617 0.477 1.761 1.331 28.839 21.917 54.565 47.719 76.396 76.627 0.39 0.54 0.595 0.828 0.595 0.828z" />
<glyph unicode="&#xe90e;" glyph-name="sysmsg" horiz-adv-x="1216" d="M1016.889 960c35.346 0 64-28.654 64-64l-0.057-351.296-7.3 3.418c-27.818 11.944-59.197 7.233-82.473-11.619l-6.728-6.078c-10.394-10.173-24.122-15.871-38.578-15.871-14.317-0.017-27.903 5.458-38.548 15.871-23.986 23.453-58.889 23.544-89.151 10.557-28.768-12.321-55.404-21.821-79.937-41.97-25.396-21.308-36.712-55.432-29.675-88.11 3.291-15.479 0.948-31.832-6.541-45.586-7.452-13.661-19.148-23.603-33.042-28.213-30.732-10.051-53.159-37.834-57.756-71.16-2.096-16.374-3.128-32.755-3.103-49.083l-129.224 0.028-276.151-197.043v197.043h-138.625c-35.346 0-64 28.654-64 64v615.111c0 35.346 28.654 64 64 64h952.889zM270.222 689.778c-37.31 0-67.556-30.246-67.556-67.556s30.246-67.556 67.556-67.556c37.31 0 67.556 30.246 67.556 67.556s-30.246 67.556-67.556 67.556zM540.444 689.778c-37.31 0-67.556-30.246-67.556-67.556s30.246-67.556 67.556-67.556c37.31 0 67.556 30.246 67.556 67.556s-30.246 67.556-67.556 67.556zM810.667 689.778c-37.31 0-67.556-30.246-67.556-67.556s30.246-67.556 67.556-67.556c37.31 0 67.556 30.246 67.556 67.556s-30.246 67.556-67.556 67.556zM809.359-28.926c-10.716 6.355-20.999 13.456-30.771 21.251-11.882 9.515-17.264 25.28-13.764 40.335 4.998 22.657 1.482 46.419-9.843 66.53-11.248 20.079-29.445 35.074-50.967 42-14.371 4.419-24.925 17.020-27.039 32.276-3.466 25.245-3.531 50.855-0.189 76.115 2.182 15.301 12.734 27.95 27.12 32.501 21.632 6.943 39.747 21.859 51.104 42.001 11.303 20.084 14.816 43.813 9.843 66.443-3.357 15.081 2.030 30.798 13.845 40.389 19.621 15.589 41.238 28.331 64.245 37.864 13.845 5.748 29.471 2.776 40.747-7.89 16.577-15.688 38.299-24.386 60.839-24.36 22.713 0 44.342 8.694 61.027 24.5 10.938 10.64 26.914 13.746 40.882 7.944 22.93-9.614 44.534-22.447 64.082-38.031 11.87-9.473 17.142-24.945 13.764-40.334-4.995-22.657-1.479-46.416 9.843-66.526 11.257-20.063 29.452-35.036 50.967-41.947 14.603-4.721 24.956-17.113 27.039-32.334 3.463-25.362 3.516-50.974 0.189-76.114-2.181-15.301-12.733-27.947-27.119-32.499-21.559-6.895-39.793-21.88-51.075-41.975-11.32-20.091-14.844-43.828-9.871-66.473 3.348-15.071-2.040-30.775-13.845-40.36-19.619-15.606-41.236-28.353-64.246-37.891-13.921-5.75-29.83-2.66-40.746 7.916-16.592 15.678-38.321 24.376-60.863 24.36-22.626 0.020-44.423-8.742-61.027-24.525-10.936-10.637-26.906-13.731-40.858-7.919-11.462 4.797-22.592 10.392-33.311 16.75zM1046.017 155.858c30.724 53.368 12.459 121.537-40.831 152.391-53.366 30.726-121.529 12.46-152.381-40.835-30.724-53.368-12.459-121.537 40.831-152.394 53.358-30.706 121.522-12.45 152.381 40.837z" />
<glyph unicode="&#xe90f;" glyph-name="user" horiz-adv-x="922" d="M576 311.759c57.6 29.951-288 29.951-230.4 0v-70.334c0 0-148.239-50.079-218.119-72.922s-127.481-112.697-127.481-232.503h921.6c0 119.806-57.6 209.66-124.416 232.503-56.808 15.957-221.184 72.924-221.184 72.924v70.332zM572.349 321.818c58.545 29.13 51.928 86.063 87.818 121.802 35.892 35.715 87.441 55.977 95.227 128.997 7.808 73.064-36.682 82.338-36.682 82.338v139.901c-17.169 119.662-218.906 180.174-314.647 161.95-95.029-10.975-206.047-77.214-214.602-177.631v-124.22c-18.354 0-42.144-9.337-34.338-82.358 7.788-73.064 57.74-93.262 95.226-128.978s29.273-92.671 87.818-121.802c0 0 58.126-38.015 116.788-38.015s117.392 38.015 117.392 38.015z" />
<glyph unicode="&#xe910;" glyph-name="workorder" horiz-adv-x="970" d="M0 906.387c0 29.61 23.98 53.613 53.539 53.613h863.027c29.569 0 53.539-24.303 53.539-53.613v-916.774c0-29.61-23.98-53.613-53.539-53.613h-863.027c-29.569 0-53.539 24.303-53.539 53.613v916.774zM181.895 732.444v-113.778h121.263v113.778h-121.263zM181.895 504.889v-113.778h121.263v113.778h-121.263zM181.895 277.333v-113.778h121.263v113.778h-121.263zM363.789 732.444v-113.778h424.421v113.778h-424.421zM363.789 277.333v-113.778h424.421v113.778h-424.421zM363.789 504.889v-113.778h424.421v113.778h-424.421z" />
<glyph unicode="&#xe911;" glyph-name="kcmp" horiz-adv-x="1205" d="M508.998 855.957c63.479 0 125.599-21.678 179.529-62.359 40.39-30.607 75.297-71.221 102.438-118.877l1.671-3.128 9.033-1.11c53.1-8.246 102.518-36.126 143.238-80.326l9.996-11.388 9.616-12.056c24.196-31.835 43.12-68.449 56.393-108.969 13.58-41.585 20.447-85.334 20.447-130.051s-6.868-88.466-20.456-130.077c-13.264-40.494-32.188-77.108-56.354-108.903-48.639-64.22-113.332-101.988-183.097-106.208l-13.138-0.397h-538.817c-63.246 0-122.064 32.617-165.567 90.382-40.803 54.090-63.931 126.764-63.931 199.733s23.128 145.643 63.907 199.7c27.842 37.012 61.971 63.789 99.673 78.19l12.696 4.339 3.406 0.948 3.315 12.496c44.372 159.606 161.071 273.333 298.658 286.735l13.826 1.004 13.516 0.323zM689.237 434.911l-110.474-208.076 60.904 4.214c-32.322-31.893-76.679-51.37-125.1-51.37-53.6 0-103.249 23.799-136.885 64.227-10.638 12.787-29.628 14.528-42.415 3.89s-14.528-29.628-3.89-42.415c44.961-54.040 111.504-85.937 183.189-85.937 82.083 0 155.423 41.795 198.381 106.25l6.875 10.949 93.837 6.618-124.422 191.65zM665.062 960c63.479 0 125.599-21.678 179.529-62.359 40.39-30.607 75.297-71.221 102.438-118.877l1.676-3.085 9.027-1.154c57.525-8.933 110.729-40.909 153.234-91.714l9.616-12.056c24.196-31.835 43.12-68.449 56.393-108.969 13.58-41.585 20.447-85.334 20.447-130.051s-6.868-88.466-20.456-130.077c-13.264-40.494-32.188-77.108-56.384-108.943-10.065-13.243-28.96-15.819-42.202-5.754s-15.819 28.96-5.754 42.202c20.057 26.39 35.884 57.012 47.089 91.219 11.595 35.507 17.472 72.944 17.472 111.353s-5.877 75.846-17.463 111.327c-11.214 34.234-27.040 64.855-47.093 91.238-36.875 48.487-83.219 76.692-132.178 81.737l-11.342 0.752-17.836 0.53-8.103 15.898c-24.282 47.641-56.969 87.627-94.908 116.377-43.632 32.912-93.091 50.172-143.202 50.172-23.719 0-47.12-3.805-69.823-11.271-15.801-5.196-32.823 3.4-38.019 19.201s3.4 32.823 19.201 38.019c28.732 9.449 58.481 14.286 88.641 14.286zM514.567 595.85c-78.553 0-149.073-38.272-192.64-98.019l-7.405-10.763-111.359-3.919 122.52-191.583 114.252 199.852-44.475-1.525c31.703 28.526 73.605 45.723 119.106 45.723 54.135 0 104.23-24.281 137.855-65.403 10.529-12.877 29.503-14.78 42.38-4.251s14.78 29.503 4.251 42.38c-44.946 54.968-112.083 87.509-184.486 87.509z" />
<glyph unicode="&#xe912;" glyph-name="invoice" d="M111.008 958.955c0-59.951-49.36-108.559-110.237-108.559v-123.342c60.877 0 110.237-48.604 110.237-108.561s-49.36-108.557-110.237-108.557v-123.346c60.881 0 110.241-48.606 110.241-108.561s-49.36-108.557-110.241-108.557v-123.345c60.881 0 110.241-48.606 110.241-108.563h911.943v1021.391h-911.947zM678.795 199.821l-84.655-0.248-0.825-49.917c-0.146-23.679-19.814-43.014-43.895-43.014-22.355 0-41.484 17.187-43.56 39.097l-0.36 4.021v48.968l-81.899 0.847c-1.868-0.006-3.73 0.208-5.548 0.636-21.71 2.502-38.101 20.873-38.123 42.726 0.185 23.991 19.75 43.308 43.742 43.186h81.039l0.645 32.071-81.755 0.845c-1.792 0-3.58 0.178-5.337 0.532-21.786 2.499-38.257 20.9-38.338 42.828 0 23.781 19.632 43.148 43.742 43.148h77.597l-94.839 91.945c-8.99 9.592-13.004 18.981-13.572 29-0.722 11.5 3.291 22.795 11.106 31.262 8.307 9.269 20.188 14.534 32.635 14.462 10.73 0.010 21.097-3.889 29.161-10.968l82.581-80.232 88.204 84.112c8.179 7.471 18.838 11.643 29.915 11.71 14.045-0.774 25.019-5.655 32.924-14.641 14.827-16.484 14.532-41.585-0.677-57.717l-101.554-98.117 78.094-0.814c26.017-2.114 43.711-20.992 43.711-43.214 0-22.27-17.623-41.139-40.159-43.014l-84.701-0.213-0.645-32.172 81.977-0.812c25.76-1.945 43.56-20.815 43.56-43.258 0-22.333-17.655-41.204-40.191-43.043v0zM864.292 726.084c-41.875 0-75.826 33.419-75.826 74.666s33.951 74.668 75.826 74.668c41.875 0 75.826-33.431 75.826-74.668s-33.951-74.666-75.826-74.666z" />
<glyph unicode="&#xe913;" glyph-name="kws" horiz-adv-x="1075" d="M538.632 676.435c92.328 0 182.34-43.61 237.694-107.749 26.415-29.84 42.643-68.212 47.319-109.028v0l0.419-4.951 4.706-1.471c102.495-33.12 173.205-113.693 178.125-214.726v0l0.274-11.309c0-103.892-70.25-196.67-184.684-237.442v0l-9.224-3.434-8.926-1.609-504.692 0.053c-136.4 15.218-230.51 116.338-230.51 242.432 0 104.746 75.191 186.74 176.957 219.316v0l4.791 1.483 1.283 8.12c7.15 39.062 23.414 75.937 47.807 106.585v0l8.431 9.98c59.612 64.137 141.523 103.75 230.23 103.75zM539.971 375.082c-55.225 0-98.825-43.498-98.825-98.596 0-46.399 27.187-84.096 70.785-95.696v0-196.021h50.267v196.021l8.013 2.477c39.241 13.869 65.86 49.72 68.584 93.22 0 55.098-43.598 98.596-98.824 98.596z" />
<glyph unicode="&#xe914;" glyph-name="license-manage" d="M623.529 384.834c-9.657-64.702 41.667-97.004 118.873-97.004h-462.99c77.206 0 108.039 32.351 92.647 97.004-10.686 44.622-28.676 96.859-53.922 156.662-64.216 101.273-47.059 236.691 40.294 316.816 87.255 80.029 195.245 80.029 282.549 0 87.255-80.126 104.51-215.544 40.294-316.768-25.294-59.803-50.833-110.73-57.745-156.662v-0.048zM152.794 287.829h694.412c38.382 0 69.461-32.593 69.461-72.753v-121.255h-833.333v121.255c0 40.16 31.078 72.753 69.461 72.753v0zM83.333 45.319h833.333v-43.652h-833.333v43.652z" />
<glyph unicode="&#xe918;" glyph-name="set" d="M433.772 563.976l-117.038-208.189h-289.937c-0.597 0-1.084 0.484-1.084 1.084v206.021c0 0.597 0.484 1.084 1.084 1.084h406.972zM312.496 251.693l119.758-208.189h-405.456c-0.597 0-1.084 0.484-1.084 1.084v206.021c0 0.597 0.484 1.084 1.084 1.084h285.699zM26.797 876.259h879.554c0.597 0 1.084-0.484 1.084-1.084v-206.021c0-0.597-0.484-1.084-1.084-1.084h-879.554c-0.597 0-1.084 0.484-1.084 1.084v206.021c0 0.597 0.484 1.084 1.084 1.084zM544.050 563.976h306.657c0.383 0 0.738-0.203 0.933-0.532l154.34-261.484-154.339-257.929c-0.196-0.326-0.55-0.527-0.93-0.527h-306.668c-0.38 0-0.732 0.2-0.929 0.525l-154.338 256.72 154.34 262.69c0.195 0.33 0.551 0.534 0.934 0.534zM699.972 199.646c57.29 0 103.732 46.604 103.732 104.094s-46.442 104.094-103.732 104.094c-57.29 0-103.732-46.604-103.732-104.094s46.442-104.094 103.732-104.094z" />
<glyph unicode="&#xe91a;" glyph-name="devlog" d="M200 810.447v-50c0-27.614 22.386-50 50-50v0h50c27.614 0 50 22.386 50 50v0 50h250v-50c0-25.642 19.302-46.775 44.169-49.664l5.831-0.336h50c25.642 0 46.775 19.302 49.664 44.169l0.336 5.831v50h136.3c35.181 0 63.7-27.968 63.7-62.406v-625.187c0-34.466-28.16-62.406-63.389-62.406h-823.223c-35.009 0-63.389 27.968-63.389 62.406v625.187c0 34.466 28.298 62.406 63.079 62.406h136.921zM825 260.447h-700c-12.273 0-22.48-8.844-24.597-20.506l-0.403-4.494v-50c0-12.273 8.844-22.48 20.506-24.597l4.494-0.403h700c12.273 0 22.48 8.844 24.597 20.506l0.403 4.494v50c0 13.807-11.193 25-25 25zM825 460.447h-700c-12.273 0-22.48-8.844-24.597-20.506l-0.403-4.494v-50c0-12.273 8.844-22.48 20.506-24.597l4.494-0.403h700c12.273 0 22.48 8.844 24.597 20.506l0.403 4.494v50c0 13.807-11.193 25-25 25zM825 660.447h-700c-12.273 0-22.48-8.844-24.597-20.506l-0.403-4.494v-50c0-12.273 8.844-22.48 20.506-24.597l4.494-0.403h700c12.273 0 22.48 8.844 24.597 20.506l0.403 4.494v50c0 13.807-11.193 25-25 25zM701.543 860c13.807 0 25-11.193 25-25v-75c0-13.807-11.193-25-25-25h-50c-13.807 0-25 11.193-25 25v75c0 13.807 11.193 25 25 25h50zM300.356 860c13.807 0 25-11.193 25-25v-75c0-13.807-11.193-25-25-25h-50c-13.807 0-25 11.193-25 25v75c0 13.807 11.193 25 25 25h50z" />
</font>
</defs>
</svg>
