<?xml version="1.0" standalone="no"?>
<!DOCTYPE svg PUBLIC "-//W3C//DTD SVG 1.1//EN" "http://www.w3.org/Graphics/SVG/1.1/DTD/svg11.dtd" >
<svg xmlns="http://www.w3.org/2000/svg">
<metadata>Generated by IcoMoon</metadata>
<defs>
<font id="icomoon" horiz-adv-x="1024">
<font-face units-per-em="1024" ascent="960" descent="-64" />
<missing-glyph horiz-adv-x="1024" />
<glyph unicode="&#x20;" horiz-adv-x="512" d="" />
<glyph unicode="&#xe900;" glyph-name="alert" d="M512 908.766c55.638 0 100.741-45.103 100.741-100.741 0-2.867-0.122-5.734-0.367-8.591l-44.613-521.259c-2.521-29.452-27.163-52.075-56.723-52.075-29.538 0-54.14 22.65-56.577 52.087l-43.142 521.221c-4.602 55.604 36.743 104.411 92.347 109.014 2.772 0.229 5.552 0.344 8.333 0.344zM510.836-25.838c-53.861 0-97.524 43.663-97.524 97.524s43.663 97.524 97.524 97.524c53.861 0 97.524-43.663 97.524-97.524s-43.663-97.524-97.524-97.524z" />
<glyph unicode="&#xe901;" glyph-name="android-alert" d="M512-64c-282.77 0-512 229.23-512 512s229.23 512 512 512c282.77 0 512-229.23 512-512s-229.23-512-512-512zM512.004 767.387c-26.51 0-48-21.49-48-48v-352.41c0-26.51 21.49-48 48-48s48 21.49 48 48v352.41c0 26.51-21.49 48-48 48zM512 255.805c-17.983 0-32.793-5.378-45.488-18.286-12.694-11.832-17.983-26.891-17.983-45.176s5.289-33.345 17.983-46.252c12.694-11.832 27.504-18.286 45.488-18.286s32.793 6.454 45.488 18.286c12.694 11.832 19.041 26.891 19.041 46.252 0 18.286-6.347 33.345-17.983 45.176-12.694 12.908-28.562 18.286-46.545 18.286z" />
<glyph unicode="&#xe902;" glyph-name="android-bulb" horiz-adv-x="896" d="M544.031 159.36l-204.169-52.627c-15.512-3.599-25.596-18.583-23.084-34.303 1.86-14.672 13.298-29.62 31.421-29.62 2.955 0.020 5.895 0.413 8.752 1.171l204.1 52.558c15.512 3.599 25.596 18.583 23.084 34.304-1.861 14.74-13.23 29.618-31.421 29.618-2.929-0.005-5.846-0.375-8.683-1.102zM486.692 14.87c-13.574-9.299-26.598-14.465-38.656-15.154h-1.585c-8.237 0.457-16.256 2.815-23.429 6.888-0.689 0.345-3.376 2.135-5.168 3.306-4.962 3.306-6.339 4.202-7.993 4.409-4.682 2.436-9.881 3.712-15.16 3.72-15.033-0.157-28.433-9.507-33.764-23.558-3.928-11.366-0.207-22.869 9.922-30.928 22.877-17.978 49.612-27.552 77.175-27.552 25.22 0 50.232 8.059 72.282 23.283 12.321 8.205 17.58 23.667 12.816 37.679-4.41 14.19-16.125 23.695-29.147 23.695-6.229-0.052-12.271-2.097-17.293-5.787zM581.122 755.605c-39.516 21.54-83.845 32.725-128.854 32.512-39.001 0-78.208-8.266-113.489-23.902-36.797-16.169-69.345-40.642-95.091-71.499-48.097-57.654-68.424-141.139-54.229-223.177 13.574-78.87 56.778-145.066 118.518-181.642 4.94-3.020 10.609-4.639 16.399-4.684 14.861 0.521 27.547 10.892 31.007 25.349 4.116 13.772-1.939 28.549-14.539 35.474-82.549 48.907-106.047 166.695-80.414 247.838 24.875 78.663 101.016 131.565 189.492 131.565 37.279 0 73.592-9.643 104.944-27.897 42.446-24.66 72.765-65.783 85.443-115.791 13.749-53.486 5.563-110.246-22.739-157.672-11.232-18.392-25.771-35.405-39.828-51.8-9.027-10.47-18.398-21.353-26.874-32.581-14.47-19.287-18.881-39.952-23.222-59.859l-2.342-10.677-186.185-49.526c-15.577-3.725-25.624-18.852-23.015-34.647 1.929-14.534 13.23-29.344 31.214-29.344 3.027 0.023 6.039 0.44 8.958 1.24l145.254 38.642c5.374 1.447 10.68 2.755 15.711 3.995 39.759 9.781 71.111 17.565 74.763 74.943 1.31 20.251 18.674 39.263 34.040 55.864 3.928 4.34 7.649 8.335 11.025 12.399 18.467 21.56 41.413 50.904 55.952 85.551 30.733 73.153 25.289 155.191-15.16 230.961l0.002 0.068c-22.061 41.427-55.666 75.571-96.744 98.295zM95.608 551.163h-63.118c-17.944 0-32.49-14.541-32.49-32.478s14.546-32.478 32.49-32.478h62.981c17.916 0 32.386 14.534 32.386 32.443 0.138 17.91-14.332 32.513-32.248 32.513zM863.51 551.163h-62.912c-17.944 0-32.49-14.541-32.49-32.478s14.546-32.478 32.49-32.478h62.912c17.944 0 32.49 14.541 32.49 32.478s-14.546 32.478-32.49 32.478zM176.918 744.929c13.526-11.815 34.073-10.431 45.891 3.090 10.71 12.252 10.71 30.533 0 42.786l-44.514 44.636c-13.526 11.815-34.073 10.431-45.891-3.090-10.71-12.252-10.71-30.533 0-42.786l44.514-44.636zM720.863 292.372c-13.526 11.815-34.073 10.431-45.891-3.090-10.71-12.252-10.71-30.533 0-42.786l44.514-44.567c13.526-11.815 34.073-10.431 45.891 3.090 10.71 12.252 10.71 30.533 0 42.786l-44.514 44.567zM481.276 866.023v63.028c-0.826 17.899-16.010 31.74-33.915 30.915-16.75-0.772-30.153-14.171-30.925-30.915v-63.028c0-17.909 14.47-32.443 32.386-32.443 17.984 0 32.455 14.534 32.455 32.443zM177.009 292.463l-0.091-0.091-44.514-44.567c-12.672-12.668-12.672-33.207 0-45.875s33.219-12.668 45.891 0l44.514 44.498c12.678 12.692 12.678 33.252 0 45.944-12.622 12.668-33.128 12.709-45.8 0.091zM674.972 744.929c12.622-12.668 33.128-12.709 45.8-0.091l0.091 0.091 44.514 44.567c12.672 12.668 12.672 33.207 0 45.875s-33.219 12.668-45.891 0l-44.514-44.498c-12.678-12.694-12.678-33.252 0-45.944z" />
<glyph unicode="&#xe903;" glyph-name="android-close" d="M439.183 446.439l-329.126 329.126c-20.197 20.197-20.197 52.942 0 73.139s52.942 20.197 73.139 0l329.126-329.126 329.126 329.126c20.197 20.197 52.942 20.197 73.139 0s20.197-52.942 0-73.139l-329.126-329.126 329.126-329.126c20.197-20.197 20.197-52.942 0-73.139s-52.942-20.197-73.139 0l-329.126 329.126-329.126-329.126c-20.197-20.197-52.942-20.197-73.139 0s-20.197 52.942 0 73.139l329.126 329.126z" />
<glyph unicode="&#xe904;" glyph-name="android-download" d="M813.717 573.159c118.024-29.703 210.28-121.737 210.283-249.025 0-106.075-67.84-209.218-194.002-255.891l-10.65-4.117-579.467-0.126c-146.512 16.971-239.88 128.603-239.88 260.134s105.577 215.079 207.321 240.537c4.070 55.157 24.419 110.316 61.048 152.746 56.974 63.644 142.443 114.582 244.187 114.582 105.816 0 199.417-55.179 252.324-118.825 32.558-38.188 48.838-89.102 48.838-140.015zM478.844 320h-81.589c-17.673 0-32-14.327-32-32 0-8.487 3.371-16.626 9.373-22.627l114.745-114.745c12.497-12.497 32.758-12.497 45.255 0l114.745 114.745c12.497 12.497 12.497 32.758 0 45.255-6.001 6.001-14.14 9.373-22.627 9.373h-83.901v285.914c0 17.673-14.327 32-32 32s-32-14.327-32-32v-285.914z" />
<glyph unicode="&#xe905;" glyph-name="android-pin" horiz-adv-x="896" d="M554.304 534.566c9.887-49.013-16.733-98.084-63.603-117.247s-100.963-3.093-129.246 38.398c-28.283 41.491-22.893 96.87 12.877 132.318 20.026 19.845 47.276 30.987 75.689 30.947 50.751-0.073 94.396-35.403 104.283-84.415zM282.263 546.176c-15.826-78.917 27.165-157.853 102.684-188.54s162.538-4.581 207.846 62.356c45.308 66.937 36.29 156.065-21.541 212.884-32.090 31.727-75.755 49.47-121.231 49.262-81.698-0.122-151.933-57.045-167.759-135.962zM742.613 835.702c-76.986 78.417-183.007 122.697-293.776 122.697s-216.79-44.281-293.776-122.697c-162.030-165.001-162.030-426.774 0-591.775l293.776-296.203 293.776 296.203c162.030 165.001 162.030 426.774 0 591.775zM448.837 32.984l-249.517 252.625c-137.762 139.881-137.762 362.212 0 502.093 65.474 66.446 155.491 103.945 249.517 103.945s184.043-37.5 249.517-103.945c137.762-139.881 137.762-362.212 0-502.093l-249.517-252.625z" />
<glyph unicode="&#xe906;" glyph-name="android-remove-circle" d="M512-64c-282.77 0-512 229.23-512 512s229.23 512 512 512c282.77 0 512-229.23 512-512s-229.23-512-512-512zM288.902 478.629c-17.673 0-32-14.327-32-32s14.327-32 32-32h448c17.673 0 32 14.327 32 32s-14.327 32-32 32h-448z" />
<glyph unicode="&#xe907;" glyph-name="android-star" d="M501.957 71.632l-229.85-126.542c-36.197-18.887-79.633-5.666-97.731 32.108-7.239 15.11-10.859 32.108-7.239 47.217l43.436 266.305c1.81 5.666-1.81 13.221-5.43 16.998l-182.794 188.869c-28.957 28.33-28.957 77.436-1.81 107.655 10.859 11.332 25.338 18.887 41.626 22.664l256.997 39.662c5.43 0 10.859 5.666 14.479 9.443l114.020 241.752c18.098 37.774 61.535 52.883 97.731 33.996 14.479-7.555 25.338-18.887 32.577-33.996l112.21-243.641c1.81-5.666 7.239-9.443 14.479-9.443l256.997-39.662c39.816-5.666 66.964-43.44 61.535-84.991-1.81-16.998-9.049-32.108-21.718-43.44l-184.604-188.869c-3.62-3.777-5.43-11.332-5.43-16.998l43.436-266.305c7.239-41.551-19.908-79.325-59.725-86.88-16.289-1.889-32.577 0-45.246 7.555l-229.85 126.542c-5.43 1.889-12.669 1.889-18.098 0z" />
<glyph unicode="&#xe908;" glyph-name="android-star-outline" d="M555.814 129.831l234.623-129.939-44.338 273.455c-5.542 31.030 5.542 64 25.864 85.333l188.437 193.939-262.334 40.727c-29.559 3.879-55.423 25.212-70.202 52.364l-114.54 250.182-116.388-248.242c-12.932-29.091-38.796-48.485-70.202-52.364l-262.334-42.667 188.437-193.939c22.169-21.333 31.406-54.303 25.864-85.333l-42.491-273.455 234.623 129.939c25.864 15.515 59.118 15.515 84.981 0zM501.957 71.632l-229.85-126.542c-36.197-18.887-79.633-5.666-97.731 32.108-7.239 15.11-10.859 32.108-7.239 47.217l43.436 266.305c1.81 5.666-1.81 13.221-5.43 16.998l-182.794 188.869c-28.957 28.33-28.957 77.436-1.81 107.655 10.859 11.332 25.338 18.887 41.626 22.664l256.997 39.662c5.43 0 10.859 5.666 14.479 9.443l114.020 241.752c18.098 37.774 61.535 52.883 97.731 33.996 14.479-7.555 25.338-18.887 32.577-33.996l112.21-243.641c1.81-5.666 7.239-9.443 14.479-9.443l256.997-39.662c39.816-5.666 66.964-43.44 61.535-84.991-1.81-16.998-9.049-32.108-21.718-43.44l-184.604-188.869c-3.62-3.777-5.43-11.332-5.43-16.998l43.436-266.305c7.239-41.551-19.908-79.325-59.725-86.88-16.289-1.889-32.577 0-45.246 7.555l-229.85 126.542c-5.43 1.889-12.669 1.889-18.098 0z" />
<glyph unicode="&#xe909;" glyph-name="android-time" d="M511.658 5.067c244.862 0 443.261 198.253 443.163 442.819 0 244.67-198.41 442.933-443.277 442.933-244.825 0-443.277-198.336-443.277-442.933 0-244.544 198.513-442.819 443.391-442.819zM546.133 466.978v256.222c0 17.673-14.327 32-32 32h-4.267c-17.673 0-32-14.327-32-32v-277.333c0-5.494 1.384-10.664 3.823-15.181 2.982-8.945 9.872-16.492 19.42-19.968l196.458-71.505c16.607-6.045 34.97 2.518 41.015 19.126l1.459 4.009c6.045 16.607-2.518 34.97-19.126 41.015l-174.784 63.616zM511.658-63.2c-282.542 0-511.658 228.8-511.658 511.086s229.002 511.2 511.543 511.2c282.542 0 511.543-228.8 511.543-511.2 0.114-282.286-228.887-511.086-511.429-511.086z" />
<glyph unicode="&#xe90a;" glyph-name="annex" horiz-adv-x="960" d="M157.403 533.88c88.126 88.126 210.679 210.679 367.659 367.659 82.025 82.025 217.876 79.161 303.434-6.396 79.675-79.675 87.636-202.967 22.111-285.786l0.172-0.172-1.552-1.552c-4.45-5.5-9.228-10.816-14.335-15.923l-347.814-347.173-0.471 0.475-46.889-46.889c-47.763-47.763-126.869-46.095-176.689 3.725s-51.487 128.926-3.725 176.689c161.251 161.251 282.189 282.189 362.815 362.815 16.887 12.502 31.538 12.956 43.953 1.362s13.203-25.497 2.364-41.71c-80.947-80.947-202.976-204.833-364.87-366.728-24.327-24.327-23.478-64.619 1.897-89.994s65.666-26.224 89.994-1.897l407.153 407.153c45.986 59.146 40.055 146.568-16.548 203.171-61.112 61.112-158.149 63.158-216.738 4.569-177.139-177.139-309.993-309.993-398.562-398.562l-0.236 0.197c-11.115-11.115-24.005-24.005-38.668-38.668-93.742-93.742-90.47-249.002 7.31-346.781s245.58-101.303 339.322-7.56l374.989 374.989c11.718 11.718 33.767 9.441 45.989-2.782s12.632-31.63 0.914-43.348l-194.291-189.781-183.34-183.34c-117.178-117.178-303.793-112.837-426.017 9.388s-126.316 316.299-9.138 433.477c30.933 30.933 54.132 54.132 69.598 69.598l0.21-0.223z" />
<glyph unicode="&#xe90b;" glyph-name="arrow-down-b" d="M425.94 137.248l-408.852 512.326c-30.166 43.499-19.34 103.204 24.181 133.355 16.044 11.115 35.1 17.070 54.621 17.070h832.229c52.954 0 95.881-42.906 95.881-95.832 0-19.436-5.913-38.413-16.954-54.413l-423.376-512.326c-30.067-43.568-89.777-54.525-133.368-24.474-9.52 6.563-17.774 14.794-24.362 24.294z" />
<glyph unicode="&#xe90c;" glyph-name="arrow-expand" d="M923.436 809.951l-265.495-265.495-48.272 48.272 265.495 265.495-100.685 100.685h249.641v-249.641l-100.685 100.685zM168.362 151.421l265.495 265.495 48.272-48.272-265.495-265.495 100.685-100.685h-249.641v249.641l100.685-100.685zM168.362 809.951l265.495-265.495 48.272 48.272-265.495 265.495 100.685 100.685h-249.641v-249.641l100.685 100.685zM923.436 151.421l-265.495 265.495-48.272-48.272 265.495-265.495-100.685-100.685h249.641v249.641l-100.685-100.685z" />
<glyph unicode="&#xe90d;" glyph-name="arrow-move" d="M1008.964 421.577l-162.457-177.111c-12.688-13.832-33.256-13.832-45.943 0-6.352 6.908-9.52 15.976-9.52 25.044s3.184 18.118 9.52 25.044l106.994 116.645h-311.462c-17.951 0-21.994 15.851-21.994 35.422s4.043 35.422 21.994 35.422h311.462l-106.994 116.645c-12.688 13.833-12.688 36.255 0 50.087s33.256 13.832 45.943 0l162.457-177.11c12.688-13.833 12.688-36.255 0-50.087zM9.516 421.577c-12.688 13.832-12.688 36.255 0 50.087l162.457 177.11c12.688 13.832 33.255 13.832 45.943 0s12.688-36.255 0-50.087l-106.994-116.645h311.462c17.951 0 21.994-15.851 21.994-35.422s-4.043-35.422-21.994-35.422h-311.462l106.994-116.645c6.336-6.925 9.52-15.976 9.52-25.044s-3.169-18.136-9.52-25.044c-12.688-13.832-33.255-13.832-45.943 0l-162.457 177.111zM512 887.991c20.198 0 36.571-16.374 36.571-36.571v-804.571c0-20.198-16.374-36.571-36.571-36.571s-36.571 16.374-36.571 36.571v804.571c0 20.198 16.374 36.571 36.571 36.571z" />
<glyph unicode="&#xe90e;" glyph-name="arrow-right-b" d="M804.472 528.997l-482.189 384.802c-40.94 28.392-97.133 18.202-125.511-22.759-10.461-15.1-16.066-33.035-16.066-51.408v-783.274c0-49.839 40.382-90.241 90.195-90.241 18.293 0 36.154 5.565 51.212 15.957l482.189 398.472c41.005 28.298 51.318 84.496 23.035 125.522-6.177 8.96-13.923 16.728-22.865 22.929z" />
<glyph unicode="&#xe90f;" glyph-name="arrow-shrink" d="M688.584 668.702l248.902 248.902 45.255-45.255-248.902-248.902 94.392-94.392h-234.039v234.039l94.392-94.392zM334.976 224.584l-248.902-248.902-45.255 45.255 248.902 248.902-94.392 94.392h234.039v-234.039l-94.392 94.392zM312.349 668.702l-248.902 248.902-45.255-45.255 248.902-248.902-94.392-94.392h234.039v234.039l-94.392-94.392zM665.957 224.584l248.902-248.902 45.255 45.255-248.902 248.902 94.392 94.392h-234.039v-234.039l94.392 94.392z" />
<glyph unicode="&#xe910;" glyph-name="arrow-swap" d="M852.571 622.125l-167.944 174.746c-19.561 20.353-18.958 52.699 1.349 72.308l0.088 0.085c20.292 19.596 52.628 19.031 72.224-1.261 0.028-0.029 0.057-0.059 0.085-0.088l250.755-260.911c9.193-9.255 14.873-22.004 14.873-36.080 0-28.277-22.923-51.2-51.2-51.2h-921.6c-28.277 0-51.2 22.923-51.2 51.2s22.923 51.2 51.2 51.2h801.371zM171.429 269.2l167.944-174.746c19.561-20.353 18.958-52.699-1.349-72.308l-0.088-0.085c-20.292-19.596-52.628-19.031-72.224 1.261-0.028 0.029-0.057 0.059-0.085 0.088l-250.755 260.911c-9.193 9.255-14.873 22.004-14.873 36.080 0 28.277 22.923 51.2 51.2 51.2h921.6c28.277 0 51.2-22.923 51.2-51.2s-22.923-51.2-51.2-51.2h-801.371z" />
<glyph unicode="&#xe911;" glyph-name="arrow-swap-circle" d="M512-64c-282.77 0-512 229.23-512 512s229.23 512 512 512c282.77 0 512-229.23 512-512s-229.23-512-512-512zM512 0c247.424 0 448 200.576 448 448s-200.576 448-448 448c-247.424 0-448-200.576-448-448s200.576-448 448-448zM695.185 551.848l-81.212 84.097c-12.277 12.713-11.923 32.971 0.79 45.248s32.971 11.923 45.248-0.79l132.061-136.754c6.514-5.858 10.611-14.351 10.611-23.802 0-17.673-14.327-32-32-32h-512c-17.673 0-32 14.327-32 32s14.327 32 32 32h436.502zM334.182 339.699l81.212-84.097c12.277-12.713 11.923-32.971-0.79-45.248s-32.971-11.923-45.248 0.79l-132.061 136.754c-6.514 5.858-10.611 14.351-10.611 23.802 0 17.673 14.327 32 32 32h512c17.673 0 32-14.327 32-32s-14.327-32-32-32h-436.502z" />
<glyph unicode="&#xe912;" glyph-name="arrow-up-b" d="M425.94 758.752l-408.852-512.326c-30.166-43.499-19.34-103.204 24.181-133.355 16.044-11.115 35.1-17.070 54.621-17.070h832.229c52.954 0 95.881 42.906 95.881 95.832 0 19.436-5.913 38.413-16.954 54.413l-423.376 512.326c-30.067 43.568-89.777 54.525-133.368 24.474-9.52-6.563-17.774-14.794-24.362-24.294z" />
<glyph unicode="&#xe913;" glyph-name="bell" horiz-adv-x="896" d="M542.801 817.832c130.446-40.099 225.199-160.774 225.199-303.412v-194.421c70.692 0 128-57.308 128-128s-57.308-128-128-128h-192c0-70.692-57.308-128-128-128s-128 57.308-128 128h-192c-70.692 0-128 57.308-128 128s57.308 128 128 128v194.421c0 141.762 93.593 261.83 222.801 302.664v46.845c0 53.019 42.981 96 96 96s96-42.981 96-96v-46.097zM478.801 863.93c0 17.673-14.327 32-32 32s-32-14.327-32-32v-93.739l-44.714-14.131c-105.278-33.271-178.087-130.551-178.087-241.639v-258.421h-64c-35.346 0-64-28.654-64-64s28.654-64 64-64h256v-64c0-35.346 28.654-64 64-64s64 28.654 64 64v64h256c35.346 0 64 28.654 64 64s-28.654 64-64 64h-64v258.421c0 111.812-73.759 209.577-180.004 242.237l-45.195 13.893v93.379z" />
<glyph unicode="&#xe914;" glyph-name="bell-close" horiz-adv-x="896" d="M848.653 92.601l33.816-33.816c12.497-12.497 12.497-32.758 0-45.255s-32.758-12.497-45.255 0l-51.663 51.663c-5.738-0.787-11.597-1.193-17.552-1.193h-192c0-70.692-57.308-128-128-128s-128 57.308-128 128h-192c-70.692 0-128 57.308-128 128s57.308 128 128 128v194.421c0 59.596 16.541 115.357 45.314 163.010l-150.687 150.687c-12.497 12.497-12.497 32.758 0 45.255s32.758 12.497 45.255 0l144.288-144.288c37.256 40.291 84.859 71.007 138.63 88v46.845c0 53.019 42.981 96 96 96s96-42.981 96-96v-46.097c130.446-40.099 225.199-160.774 225.199-303.412v-194.421c70.692 0 128-57.308 128-128 0-40.12-18.459-75.93-47.347-99.399zM802.906 138.348c17.515 11.419 29.094 31.183 29.094 53.652 0 35.346-28.654 64-64 64h-64v258.421c0 111.812-73.759 209.577-180.004 242.237l-45.195 13.893v93.379c0 17.673-14.327 32-32 32s-32-14.327-32-32v-93.739l-44.714-14.131c-44.296-13.999-82.844-39.33-112.639-72.253l545.459-545.459zM722.745 128l-502.419 502.419c-18.185-35.003-28.327-74.539-28.327-115.998v-258.421h-64c-35.346 0-64-28.654-64-64s28.654-64 64-64h256v-64c0-35.346 28.654-64 64-64s64 28.654 64 64v64h210.745z" />
<glyph unicode="&#xe915;" glyph-name="checkmark" d="M387.609 247.649l529.594 531.249c24.774 24.851 64.885 25.032 89.592 0.403 24.87-24.95 24.752-65.206-0.123-90.159l-568.411-570.188c-1.717-2.262-3.605-4.435-5.665-6.501-24.775-24.854-65.010-24.852-89.907-0.034l-322.321 323.331c-24.899 24.977-24.965 65.323-0.149 90.218 24.775 24.854 65.010 24.852 89.907 0.034 0.048-0.047 0.095-0.095 0.142-0.142l277.342-278.212z" />
<glyph unicode="&#xe916;" glyph-name="chevron-down" d="M511.031 313.878l403.356 403.25c25.066 25.060 65.514 25.252 90.733 0.040 25.044-25.038 25.317-65.359-0.040-90.709l-447.464-447.347c-11.187-11.184-25.438-17.415-40.032-18.645-18.731-2.276-38.259 3.771-52.81 18.317l-446.029 445.912c-24.963 24.957-25.072 65.311 0.146 90.523 25.044 25.038 65.294 25.392 90.547 0.146l401.593-401.487z" />
<glyph unicode="&#xe917;" glyph-name="close" d="M408.566 448.165l-328.568 325.991c-28.564 28.564-28.564 74.876 0 103.44s74.876 28.564 103.44 0l328.568-325.991 329.331 325.991c28.564 28.564 74.876 28.564 103.44 0s28.564-74.876 0-103.44l-329.331-325.991 329.331-326.245c28.564-28.564 28.564-74.876 0-103.44s-74.876-28.564-103.44 0l-329.331 326.245-328.568-326.245c-28.564-28.564-74.876-28.564-103.44 0s-28.564 74.876 0 103.44l328.568 326.245z" />
<glyph unicode="&#xe918;" glyph-name="close-circled" d="M512-64c-282.77 0-512 229.23-512 512s229.23 512 512 512c282.77 0 512-229.23 512-512s-229.23-512-512-512zM466.927 447.122l-203.647-203.647c-12.497-12.497-12.497-32.758 0-45.255s32.758-12.497 45.255 0l203.647 203.647 203.647-203.647c12.497-12.497 32.758-12.497 45.255 0s12.497 32.758 0 45.255l-203.647 203.647 203.647 203.647c12.497 12.497 12.497 32.758 0 45.255s-32.758 12.497-45.255 0l-203.647-203.647-203.647 203.647c-12.497 12.497-32.758 12.497-45.255 0s-12.497-32.758 0-45.255l203.647-203.647z" />
<glyph unicode="&#xe919;" glyph-name="compose" d="M256 224c-2.073-31.505 11.965-68.875 64-64 0 0 193.078 64.036 192 69.771 0 0 512 513.28 512 506.229 0 56.273-120.157 179.291-182.883 191.087-3.196 0.601-6.243 0.913-9.117 0.913 7.262 0-512-512-512-512l-64-192zM838.875 643.311l-104.128 92.689 112.511 114.079c0 0 101.087-80.733 102.885-105.771l-111.268-100.997zM374.397 384.534l309.878 304.652 104.909-97.316-309.185-310.363-160-57.507 54.397 160.534zM896 282.273c0 17.673 14.327 32 32 32s32-14.327 32-32v-218.273c0-53.019-42.981-96-96-96h-768c-53.019 0-96 42.981-96 96v768c0 53.019 42.981 96 96 96h355.418c17.673 0 32-14.327 32-32s-14.327-32-32-32h-355.418c-17.673 0-32-14.327-32-32v-768c0-17.673 14.327-32 32-32h768c17.673 0 32 14.327 32 32v218.273z" />
<glyph unicode="&#xe91a;" glyph-name="edit" d="M0.259 21.895l85.33 255.847c0 0 692.324 682.258 682.642 682.258 3.832 0 7.894-0.416 12.155-1.217 83.631-15.718 243.835-179.644 243.835-254.63 0 9.396-682.642-674.568-682.642-674.568 1.437-7.642-255.991-92.973-255.991-92.973-69.378-6.496-88.094 43.301-85.33 85.282zM777.398 580.642l148.352 134.582c-2.398 33.364-137.175 140.943-137.175 140.943l-150.009-152.014 138.832-123.511zM158.117 235.811l-72.527-213.917 213.326 76.63 412.232 413.57-139.874 129.677-413.156-405.96z" />
<glyph unicode="&#xe91b;" glyph-name="eject" d="M25.314 483.154l678.791 433.299c19.862 12.679 46.242 6.856 58.921-13.007 4.377-6.857 6.703-14.822 6.703-22.957v-866.599c0-23.564-19.103-42.667-42.667-42.667-8.135 0-16.1 2.326-22.957 6.703l-678.791 433.299c-19.862 12.679-25.686 39.059-13.007 58.921 3.338 5.23 7.777 9.668 13.007 13.007zM897.656 958.344c23.564 0 42.667-19.103 42.667-42.667v-938.667c0-23.564-19.103-42.667-42.667-42.667s-42.667 19.103-42.667 42.667v938.667c0 23.564 19.103 42.667 42.667 42.667z" />
<glyph unicode="&#xe91c;" glyph-name="eye" d="M505.771 224.483c-120.832 3.299-217.771 102.286-217.771 223.915 0 123.712 100.288 224 224 224s224-100.288 224-224c0-121.629-96.939-220.616-217.771-223.915 249.11 1.796 441.771 111.099 441.771 223.978 0 113.818-195.88 224-448 224s-448-110.182-448-224c0-112.879 192.661-222.181 441.771-223.978v0zM512 160.461c-282.77 0-512 128.942-512 288s229.23 288 512 288c282.77 0 512-128.942 512-288s-229.23-288-512-288zM640 448c35.346 0 64 28.654 64 64s-28.654 64-64 64c-35.346 0-64-28.654-64-64s28.654-64 64-64z" />
<glyph unicode="&#xe91d;" glyph-name="eye-disabled" d="M185.567 428.749c-0.888-1.176-1.868-2.305-2.94-3.377l-108.612-108.612c-12.497-12.497-32.758-12.497-45.255 0s-12.497 32.758 0 45.255l108.012 108.012c-53.59 51.016-97.085 113.227-126.661 183.76-6.834 16.298 0.838 35.051 17.137 41.885s35.051-0.838 41.885-17.137c74.199-176.954 247.674-294.536 442.867-294.536 194.614 0 367.673 116.884 442.243 293.055 6.889 16.275 25.667 23.884 41.942 16.995s23.884-25.667 16.995-41.942c-29.565-69.848-72.795-131.474-125.953-182.081l108.012-108.012c12.497-12.497 12.497-32.758 0-45.255s-32.758-12.497-45.255 0l-108.612 108.612c-1.072 1.072-2.051 2.2-2.939 3.376-48.914-36.686-103.986-65.133-163.046-83.715l61.358-125.681c7.753-15.882 1.164-35.041-14.717-42.795s-35.041-1.164-42.795 14.717l-67.335 137.922c-32.507-6.052-65.913-9.198-99.899-9.198-35.636 0-70.634 3.459-104.626 10.1l-70.163-139.19c-7.955-15.781-27.198-22.126-42.979-14.171s-22.126 27.198-14.171 42.979l63.916 126.797c-57.309 18.599-110.78 46.511-158.41 82.234v0z" />
<glyph unicode="&#xe91e;" glyph-name="filter" d="M402.599 204.245l153.53-223.511c3.663-4.133 13.55-8.163 21.742-8.163 30.368 0 44.526 11.107 44.526 50.254v503.701l283.107 345.44c5.537 5.62 8.782 13.461 8.782 22.105 0 16.777-11.723 29.356-24.868 29.356h-754.834c-13.144 0-24.869-12.581-24.869-29.356 0-8.719 3.318-16.854 10.541-24.633l282.344-338.694v-326.501z" />
<glyph unicode="&#xe91f;" glyph-name="filter-out" d="M931.556 846.301l-272.588-332.839v-490.636c0-73.158-47-86.826-81.098-86.826-17.659 0-37.848 7.771-49.109 20.475l-63.613 71.547 46.852 70.573c35.658-58.769 60.099-88.154 73.324-88.154 0 12.384 0 41.068 0 47.484 0 205.357 0 478.142 0 478.142l273.774 324.392c17.897 17.743 23.018 26.614 15.365 26.614-95.319 0-628.85 0-724.151 0-11.481 0-5.993-13.011 13.094-36.503l275.632-314.622v-398.299l-73.010 55.244v324.607l-273.863 328.521c-11.561 12.298-19.022 29.187-19.022 48.050 0 36.42 27.5 65.928 61.441 65.928h754.834c33.942 0 61.44-29.507 61.44-65.928 0-18.863-7.461-35.752-19.301-47.771z" />
<glyph unicode="&#xe920;" glyph-name="forbid" d="M236.786 801.524l600.523-661.548c76.047 80.288 122.691 188.709 122.691 308.024 0 247.424-200.576 448-448 448-103.754 0-199.271-35.27-275.214-94.476v0zM790.11 96.752l-600.875 661.936c-77.55-80.545-125.235-190.048-125.235-310.688 0-247.424 200.576-448 448-448 105.078 0 201.706 36.176 278.11 96.752v0zM512-64c-282.77 0-512 229.23-512 512s229.23 512 512 512c282.77 0 512-229.23 512-512s-229.23-512-512-512z" />
<glyph unicode="&#xe921;" glyph-name="forbid-strong" d="M512.003-64c-282.776 0-512.003 229.236-512.003 512.009s229.226 511.991 512.003 511.991c282.764 0 511.997-229.218 511.997-511.991s-229.234-512.009-511.997-512.009zM128.005 448.009c0-212.065 171.916-384.003 383.998-384.003 84.717 0 162.316 28.295 225.817 74.766l-535.057 535.062c-46.469-63.507-74.758-141.107-74.758-225.825zM512.003 832.012c-81.094 0-156.069-25.441-218.053-68.346l533.699-533.706c42.906 61.985 68.352 136.961 68.352 218.049 0 212.085-171.928 384.003-383.998 384.003z" />
<glyph unicode="&#xe922;" glyph-name="img" d="M219.429 608.001c0-35.344 28.651-64 64-64s64 28.656 64 64c0 35.348-28.656 64-64 64s-64-28.652-64-64zM889.929 0h-755.86c-73.906 0-134.069 61.411-134.069 136.863v622.275c0 75.451 60.163 136.863 134.069 136.863h755.86c73.907 0 134.071-61.411 134.071-136.863v-622.275c0-75.446-60.158-136.863-134.071-136.863zM65.557 767.49v-640.049c0-35.287 27.926-63.973 62.196-63.973h771.606c34.308 0 62.197 28.686 62.197 63.973v640.049c0 35.249-27.889 63.973-62.197 63.973h-771.606c-34.27 0.006-62.196-28.724-62.196-63.973zM182.854 148.175c-3.683 0.011-7.345 0.588-10.86 1.72-19.274 6.12-30.060 26.991-24.066 46.666 2.711 8.887 68.754 217.992 209.337 214.258 40.006-1.009 73.509-11.316 105.908-21.282 41.617-12.77 77.605-23.782 125.297-16.017 23.369 3.846 33.021 27.814 49.516 81.647 21.758 70.971 54.639 178.194 199.606 178.194 20.226 0 36.569-16.728 36.569-37.331 0-20.609-16.349-37.335-36.569-37.335-86.823 0-105.913-47.826-129.826-125.851-16.568-54.133-37.27-121.52-107.739-133.018-64.334-10.452-114.034 4.817-157.953 18.216-29.041 8.924-56.5 17.362-86.713 18.11-0.544 0.037-1.093 0.037-1.643 0.037-70.876 0-122.152-116.52-136.010-161.766-4.824-15.978-19.274-26.249-34.854-26.249z" />
<glyph unicode="&#xe923;" glyph-name="import" d="M341.030 857.52v0c0-18.85-15.281-34.131-34.131-34.131h-238.683v-819.128h818.543v238.931c0 18.837 15.271 34.108 34.108 34.108v0c18.837 0 34.108-15.271 34.108-34.108v-238.931c0-37.7-30.541-68.261-68.216-68.261h-818.543c-37.675 0-68.216 30.562-68.216 68.261v819.128c0 37.7 30.541 68.261 68.216 68.261h238.683c18.85 0 34.131-15.281 34.131-34.131zM477.513 468.645l470.631 465.586c13.923 13.774 36.376 13.653 50.151-0.27 0.272-0.275 0.539-0.554 0.802-0.837v0c13.911-15.013 13.486-38.332-0.963-52.829l-464.938-466.467h251.268c18.85 0 34.131-15.281 34.131-34.131v0c0-18.85-15.281-34.131-34.131-34.131h-306.95c-37.675 0-68.216 30.562-68.216 68.261v307.198c0 18.837 15.271 34.108 34.108 34.108v0c18.837 0 34.108-15.271 34.108-34.108v-252.381z" />
<glyph unicode="&#xe924;" glyph-name="ios-arrow-down" d="M102.846 699.35l415.15-463.59c7.331-7.331 19.218-7.331 26.549 0l415.43 463.59c13.615 13.615 35.69 13.615 49.305 0s13.615-35.69 0-49.305l-415.43-463.59c-34.562-34.562-90.597-34.562-125.159 0l-415.15 463.59c-13.615 13.615-13.615 35.69 0 49.305s35.69 13.615 49.305 0z" />
<glyph unicode="&#xe925;" glyph-name="ios-arrow-left" d="M785.405 863.768l-463.59-415.15c-7.331-7.331-7.331-19.218 0-26.549l463.59-415.43c13.615-13.615 13.615-35.69 0-49.305s-35.69-13.615-49.305 0l-463.59 415.43c-34.562 34.562-34.562 90.597 0 125.159l463.59 415.15c13.615 13.615 35.69 13.615 49.305 0s13.615-35.69 0-49.305z" />
<glyph unicode="&#xe926;" glyph-name="ios-arrow-right" d="M222.526 863.768l463.59-415.15c7.331-7.331 7.331-19.218 0-26.549l-463.59-415.43c-13.615-13.615-13.615-35.69 0-49.305s35.69-13.615 49.305 0l463.59 415.43c34.562 34.562 34.562 90.597 0 125.159l-463.59 415.15c-13.615 13.615-35.69 13.615-49.305 0s-13.615-35.69 0-49.305z" />
<glyph unicode="&#xe927;" glyph-name="ios-arrow-up" d="M959.835 183.016l-415.15 463.59c-7.331 7.331-19.218 7.331-26.549 0l-415.43-463.59c-13.615-13.615-35.69-13.615-49.305 0s-13.615 35.69 0 49.305l415.43 463.59c34.562 34.562 90.597 34.562 125.159 0l415.15-463.59c13.615-13.615 13.615-35.69 0-49.305s-35.69-13.615-49.305 0z" />
<glyph unicode="&#xe928;" glyph-name="ios-calendar-outline" d="M704 864h64v-192h-64v192zM256 864h64v-192h-64v192zM64.003 544h895.883c-0.064 128-0.15 192-0.257 192h-125.763v64h125.763c35.551 0 64.371-28.639 64.371-63.904v-640.192c0-35.293-28.456-63.904-64.056-63.904h-895.888c-35.377 0-64.056 28.639-64.056 63.904v640.192c0 35.293 28.596 63.904 63.743 63.904h124.538v-64h-124.281c0.001-69.692 0.002-133.692 0.003-192zM959.914 480h-895.91c0.008-256 0.025-384 0.051-384 597.287-0.001 895.935-0.003 895.944-0.006-0.019 156.822-0.047 284.824-0.086 384.006zM384 800h256v-64h-256v64z" />
<glyph unicode="&#xe929;" glyph-name="ios-copy-outline" horiz-adv-x="896" d="M64 0h575.969c0.107 0 0.118 213.333 0.031 640h-575.969c-0.107 0-0.118-213.333-0.031-640zM0 640.283c0 35.19 29.163 63.717 63.705 63.717h576.589c35.184 0 63.705-28.47 63.705-63.717v-640.566c0-35.19-29.163-63.717-63.705-63.717h-576.589c-35.184 0-63.705 28.47-63.705 63.717v640.566zM128 512v-64h448v64h-448zM128 384v-64h448v64h-448zM128 256v-64h320v64h-320zM773.515 128v64h58.373c0.133 0 0.17 234.614 0.112 703.842 0-0.023-170.765 0.030-512.295 0.158 0.395 0 0.493-46.031 0.295-138.094h-64v137.898c0 35.454 29.163 64.196 63.705 64.196h512.589c35.184 0 63.705-29.169 63.705-64.158v-703.683c0-35.434-28.408-64.158-64.112-64.158h-58.373z" />
<glyph unicode="&#xe92a;" glyph-name="ios-gear-outline" d="M364.507 820.276v75.724c0 35.346 28.654 64 64 64h166.986c35.346 0 64-28.654 64-64v-76.128c41.068-15.211 78.977-36.565 112.517-62.896l71.898 40.027c30.197 16.811 68.286 6.611 86.041-23.041l81.706-136.462c18.158-30.326 8.293-69.629-22.033-87.787-0.577-0.345-1.159-0.682-1.746-1.009l-68.51-38.141c3.335-20.382 5.067-41.278 5.067-62.564s-1.732-42.182-5.067-62.564l68.51-38.141c30.883-17.193 41.981-56.166 24.788-87.049-0.327-0.587-0.663-1.17-1.009-1.746l-81.706-136.462c-17.754-29.652-55.844-39.853-86.041-23.041l-71.898 40.027c-33.54-26.331-71.449-47.685-112.517-62.896v-76.128c0-35.346-28.654-64-64-64h-166.986c-35.346 0-64 28.654-64 64v75.724c-41.303 15.168-79.431 36.543-113.157 62.943l-71.258-39.67c-30.197-16.811-68.286-6.611-86.041 23.041l-81.706 136.462c-18.158 30.326-8.293 69.629 22.033 87.787 0.577 0.345 1.159 0.682 1.746 1.009l67.507 37.582c-3.395 20.559-5.159 41.642-5.159 63.122s1.764 42.564 5.159 63.122l-67.507 37.582c-30.883 17.193-41.981 56.166-24.788 87.049 0.327 0.587 0.663 1.17 1.009 1.746l81.706 136.462c17.754 29.652 55.844 39.853 86.041 23.041l71.258-39.67c33.726 26.4 71.854 47.776 113.157 62.943zM386.569 760.199c-34.702-12.743-67.015-30.753-95.77-53.262l-33.457-26.19-108.381 60.338-81.706-136.462 106.86-59.491-7.34-44.439c-2.857-17.299-4.304-34.895-4.304-52.693s1.447-35.394 4.304-52.693l7.34-44.439-106.86-59.491 81.706-136.462 108.381 60.338 33.457-26.19c28.754-22.508 61.068-40.519 95.77-53.262l41.938-15.401v-120.401h166.986v120.672l41.771 15.471c34.506 12.781 66.634 30.774 95.226 53.221l33.471 26.276 109.077-60.725 81.706 136.462-107.802 60.015 7.263 44.38c2.806 17.149 4.227 34.59 4.227 52.228s-1.421 35.079-4.227 52.228l-7.263 44.38 107.802 60.015-81.706 136.462-109.077-60.725-33.471 26.276c-28.592 22.446-60.72 40.44-95.226 53.221l-41.771 15.471v120.672h-166.986v-120.401l-41.938-15.401zM512 271.629c-97.202 0-176 78.798-176 176s78.798 176 176 176c97.202 0 176-78.798 176-176s-78.798-176-176-176zM512 335.629c61.856 0 112 50.144 112 112s-50.144 112-112 112c-61.856 0-112-50.144-112-112s50.144-112 112-112z" />
<glyph unicode="&#xe92b;" glyph-name="ios-help" d="M512-64c-282.77 0-512 229.23-512 512s229.23 512 512 512c282.77 0 512-229.23 512-512s-229.23-512-512-512zM523.516 777.875c-59.546 0-105.86-19.669-138.941-59.006-33.081-37.549-48.795-87.615-48.795-150.197h65.335c0 43.807 9.097 77.781 27.292 102.813 19.849 29.503 50.449 43.807 91.8 43.807 34.735 0 62.027-9.834 81.049-31.291 18.195-19.669 28.119-47.384 28.119-83.145 0-25.033-8.27-48.278-24.811-70.628-4.962-7.152-14.887-17.881-28.119-32.185-44.66-42.913-71.952-76.887-83.53-103.708-9.924-22.351-14.887-48.278-14.887-77.781v-20.563h66.162v20.563c0 24.139 4.962 45.596 15.714 65.264 8.27 16.093 20.676 32.185 38.87 49.172 36.389 34.867 58.719 58.112 66.989 68.84 20.676 29.503 31.427 64.37 31.427 104.602 0 53.642-15.714 95.661-46.314 126.058-32.254 32.185-74.433 47.384-127.362 47.384zM512 245.781c-17.983 0-32.793-5.378-45.488-18.286-12.694-11.832-17.983-26.891-17.983-45.176s5.289-33.345 17.983-46.252c12.694-11.832 27.504-18.286 45.488-18.286s32.793 6.454 45.488 18.286c12.694 11.832 19.041 26.891 19.041 46.252 0 18.286-6.347 33.345-17.983 45.176-12.694 12.908-28.562 18.286-46.545 18.286z" />
<glyph unicode="&#xe92c;" glyph-name="ios-help-outline" d="M512-64c-282.77 0-512 229.23-512 512s229.23 512 512 512c282.77 0 512-229.23 512-512s-229.23-512-512-512zM512 0c247.424 0 448 200.576 448 448s-200.576 448-448 448c-247.424 0-448-200.576-448-448s200.576-448 448-448zM523.516 777.875c52.93 0 95.108-15.199 127.362-47.384 30.6-30.397 46.314-72.416 46.314-126.058 0-40.231-10.751-75.099-31.427-104.602-8.27-10.728-30.6-33.973-66.989-68.84-18.195-16.987-30.6-33.079-38.87-49.172-10.751-19.669-15.714-41.125-15.714-65.264v-20.563h-66.162v20.563c0 29.503 4.962 55.43 14.887 77.781 11.578 26.821 38.87 60.794 83.53 103.708 13.232 14.304 23.157 25.033 28.119 32.185 16.541 22.351 24.811 45.596 24.811 70.628 0 35.761-9.924 63.476-28.119 83.145-19.022 21.457-46.314 31.291-81.049 31.291-41.351 0-71.952-14.304-91.8-43.807-18.195-25.033-27.292-59.006-27.292-102.813h-65.335c0 62.582 15.714 112.648 48.795 150.197 33.081 39.337 79.395 59.006 138.941 59.006zM512 245.781c17.983 0 33.851-5.378 46.545-18.286 11.636-11.832 17.983-26.891 17.983-45.176 0-19.361-6.347-34.42-19.041-46.252s-27.504-18.286-45.488-18.286c-17.983 0-32.793 6.454-45.488 18.286-12.694 12.908-17.983 27.966-17.983 46.252s5.289 33.345 17.983 45.176c12.694 12.908 27.504 18.286 45.488 18.286z" />
<glyph unicode="&#xe92d;" glyph-name="ios-loop-strong" d="M132.767 290.141c63.505-150.647 211.815-251.569 379.233-251.569 179.174 0 336.119 115.582 391.050 283.16 5.898 17.993 25.266 27.799 43.26 21.9s27.799-25.266 21.9-43.26c-64.098-195.543-247.178-330.372-456.21-330.372-203.811 0-383.34 128.201-451.522 316.769-0.404 1.118-0.747 2.243-1.029 3.372h-29.004c-16.702 0-30.241 13.539-30.241 30.241 0 6.286 1.959 12.415 5.604 17.536l64.955 91.258c9.685 13.607 28.567 16.786 42.173 7.101 3.815-3.038 3.815-3.038 6.896-6.817l66.561-91.258c9.842-13.494 6.881-32.411-6.612-42.253-5.175-3.775-11.415-5.808-17.82-5.808h-29.194zM891.923 608.211c-63.136 151.598-211.928 253.218-379.923 253.218-180.494 0-338.324-117.285-392.165-286.614-5.738-18.045-25.018-28.022-43.063-22.285s-28.022 25.018-22.285 43.063c62.828 197.592 246.939 334.407 457.512 334.407 203.172 0 382.259-127.399 450.918-315.109 0.807-2.207 1.373-4.443 1.712-6.68h29.455c6.405 0 12.645-2.034 17.82-5.808 13.494-9.842 16.454-28.759 6.612-42.253l-66.561-91.258c-3.081-3.779-3.081-3.779-6.896-6.817-13.607-9.685-32.488-6.506-42.173 7.101l-64.955 91.258c-3.645 5.121-5.604 11.25-5.604 17.536 0 16.702 13.539 30.241 30.241 30.241h29.353z" />
<glyph unicode="&#xe92e;" glyph-name="ios-minus-empty" d="M139.636 440.646c0.186-29.649 25.74-53.807 56.972-53.993l628.503 0.605c31.279-0.233 56.46 23.645 56.227 53.295-0.186 29.603-25.74 53.807-56.972 53.993l-628.503-0.093c-31.279 0.186-56.46-24.204-56.227-53.807z" />
<glyph unicode="&#xe92f;" glyph-name="ios-minus-outline" d="M512-64c-282.77 0-512 229.23-512 512s229.23 512 512 512c282.77 0 512-229.23 512-512s-229.23-512-512-512zM512 0c247.424 0 448 200.576 448 448s-200.576 448-448 448c-247.424 0-448-200.576-448-448s200.576-448 448-448zM288.902 478.629h448c17.673 0 32-14.327 32-32s-14.327-32-32-32h-448c-17.673 0-32 14.327-32 32s14.327 32 32 32z" />
<glyph unicode="&#xe930;" glyph-name="ios-more" d="M96 352c-53.019 0-96 42.981-96 96s42.981 96 96 96c53.019 0 96-42.981 96-96s-42.981-96-96-96zM928 352c-53.019 0-96 42.981-96 96s42.981 96 96 96c53.019 0 96-42.981 96-96s-42.981-96-96-96zM512 352c-53.019 0-96 42.981-96 96s42.981 96 96 96c53.019 0 96-42.981 96-96s-42.981-96-96-96z" />
<glyph unicode="&#xe931;" glyph-name="ios-plus-empty" d="M477.864 482.135v443.73c0 18.852 15.283 34.135 34.135 34.135s34.135-15.283 34.135-34.135v-443.73h443.731c18.852 0 34.135-15.283 34.135-34.135s-15.283-34.135-34.135-34.135h-443.731v-443.73c0-18.852-15.283-34.135-34.135-34.135s-34.135 15.283-34.135 34.135v443.73h-443.729c-18.852 0-34.135 15.283-34.135 34.135s15.283 34.135 34.135 34.135h443.729z" />
<glyph unicode="&#xe932;" glyph-name="ios-plus-outline" d="M512-64c-282.77 0-512 229.23-512 512s229.23 512 512 512c282.77 0 512-229.23 512-512s-229.23-512-512-512zM512 0c247.424 0 448 200.576 448 448s-200.576 448-448 448c-247.424 0-448-200.576-448-448s200.576-448 448-448zM480 480.391v255.055c0 17.673 14.327 32 32 32s32-14.327 32-32v-255.055h256.387c17.673 0 32-14.327 32-32s-14.327-32-32-32h-256.387v-256.945c0-17.673-14.327-32-32-32s-32 14.327-32 32v256.945h-255.613c-17.673 0-32 14.327-32 32s14.327 32 32 32h255.613z" />
<glyph unicode="&#xe933;" glyph-name="ios-search-strong" d="M766.53 237.577l247.457-247.455c12.741-12.741 12.841-33.297 0.503-45.635l1.034 1.033c-12.463-12.463-32.779-12.355-45.636 0.503l-247.457 247.455c-76.59-66.411-176.534-106.6-285.865-106.6-241.108 0-436.565 195.455-436.565 436.561s195.457 436.561 436.565 436.561c241.108 0 436.565-195.455 436.565-436.561 0-109.33-40.189-209.273-106.601-285.862zM436.565 149.244c206.664 0 374.199 167.533 374.199 374.195s-167.535 374.195-374.199 374.195c-206.664 0-374.199-167.533-374.199-374.195s167.535-374.195 374.199-374.195z" />
<glyph unicode="&#xe934;" glyph-name="ios-skipbackward" d="M855.331 804.841l-424.957-380.554c-6.72-6.72-6.72-17.616 0-24.336l424.957-380.811c12.481-12.481 12.481-32.716 0-45.196s-32.716-12.481-45.196 0l-424.957 380.811c-31.682 31.682-31.682 83.047 0 114.729l424.957 380.554c12.481 12.481 32.716 12.481 45.196 0s12.481-32.716 0-45.196zM247.019 881.135c18.851 0 34.133-15.282 34.133-34.133v-870.4c0-18.851-15.282-34.133-34.133-34.133s-34.133 15.282-34.133 34.133v870.4c0 18.851 15.282 34.133 34.133 34.133z" />
<glyph unicode="&#xe935;" glyph-name="ios-skipforward" d="M179.579 804.841l424.957-380.554c6.72-6.72 6.72-17.616 0-24.336l-424.957-380.811c-12.481-12.481-12.481-32.716 0-45.196s32.716-12.481 45.196 0l424.957 380.811c31.682 31.682 31.682 83.047 0 114.729l-424.957 380.554c-12.481 12.481-32.716 12.481-45.196 0s-12.481-32.716 0-45.196zM787.892 881.135c-18.851 0-34.133-15.282-34.133-34.133v-870.4c0-18.851 15.282-34.133 34.133-34.133s34.133 15.282 34.133 34.133v870.4c0 18.851-15.282 34.133-34.133 34.133z" />
<glyph unicode="&#xe936;" glyph-name="jump" d="M563.625 824.058c-18.851 0-34.133 15.282-34.133 34.133s15.282 34.133 34.133 34.133h307.2c47.128 0 85.333-38.205 85.333-85.333v-785.067c0-47.128-38.205-85.333-85.333-85.333h-307.2c-18.851 0-34.133 15.282-34.133 34.133s15.282 34.133 34.133 34.133h307.2c9.426 0 17.067 7.641 17.067 17.067v785.067c0 9.426-7.641 17.067-17.067 17.067h-307.2zM654.893 371.881c-2.060-0.388-4.186-0.591-6.359-0.591h-614.4c-18.851 0-34.133 15.282-34.133 34.133s15.282 34.133 34.133 34.133h614.4c3.107 0 6.118-0.415 8.979-1.193l-154.653 193.098c-11.784 14.714-9.41 36.195 5.304 47.98s36.195 9.41 47.98-5.304l179.76-224.447c19.862-24.8 19.989-60.024 0.306-84.966l-179.912-227.979c-11.678-14.798-33.142-17.328-47.94-5.649s-17.328 33.142-5.649 47.94l152.186 192.845z" />
<glyph unicode="&#xe937;" glyph-name="jump-out" d="M341.030 857.52v0c0-18.85-15.281-34.131-34.131-34.131h-238.683v-819.128h818.543v238.931c0 18.837 15.271 34.108 34.108 34.108v0c18.837 0 34.108-15.271 34.108-34.108v-238.931c0-37.7-30.541-68.261-68.216-68.261h-818.543c-37.675 0-68.216 30.562-68.216 68.261v819.128c0 37.7 30.541 68.261 68.216 68.261h238.683c18.85 0 34.131-15.281 34.131-34.131zM955.784 836.922l-470.631-465.586c-13.923-13.774-36.376-13.653-50.151 0.27-0.272 0.275-0.539 0.554-0.802 0.837v0c-13.911 15.013-13.486 38.332 0.963 52.829l464.938 466.467h-251.268c-18.85 0-34.131 15.281-34.131 34.131v0c0 18.85 15.281 34.131 34.131 34.131h306.899c37.703 0 68.267-30.564 68.267-68.267v-307.192c0-18.837-15.271-34.108-34.108-34.108v0c-18.837 0-34.108 15.271-34.108 34.108v252.381z" />
<glyph unicode="&#xe938;" glyph-name="link" d="M576.399 448c0 17.673 14.327 32 32 32s32-14.327 32-32c0-123.004-90.896-224-204.8-224h-230.4c-113.904 0-204.8 100.996-204.8 224s90.896 224 204.8 224h115.671c17.673 0 32-14.327 32-32s-14.327-32-32-32h-115.671c-76.966 0-140.8-70.927-140.8-160s63.834-160 140.8-160h230.4c76.966 0 140.8 70.927 140.8 160zM447.881 448c0-17.673-14.327-32-32-32s-32 14.327-32 32c0 123.004 90.896 224 204.8 224h230.4c113.904 0 204.8-100.996 204.8-224s-90.896-224-204.8-224h-116.916c-17.673 0-32 14.327-32 32s14.327 32 32 32h116.916c76.966 0 140.8 70.927 140.8 160s-63.834 160-140.8 160h-230.4c-76.966 0-140.8-70.927-140.8-160z" />
<glyph unicode="&#xe939;" glyph-name="load-c" d="M495.251 867.957c0 21.725 17.612 39.337 39.337 39.337s39.337-17.612 39.337-39.337v-177.018c0-21.725-17.612-39.337-39.337-39.337s-39.337 17.612-39.337 39.337v177.018zM819.699 766.154c15.362 15.362 40.269 15.362 55.631 0s15.362-40.269 0-55.631l-125.171-125.171c-15.362-15.362-40.269-15.362-55.631 0s-15.362 40.269 0 55.631l125.171 125.171zM977.133 464.749c21.725 0 39.337-17.612 39.337-39.337s-17.612-39.337-39.337-39.337h-177.018c-21.725 0-39.337 17.612-39.337 39.337s17.612 39.337 39.337 39.337h177.018zM875.331 140.301c15.362-15.362 15.362-40.269 0-55.631s-40.269-15.362-55.631 0l-125.171 125.171c-15.362 15.362-15.362 40.269 0 55.631s40.269 15.362 55.631 0l125.171-125.171zM573.926-17.133c0-21.725-17.612-39.337-39.337-39.337s-39.337 17.612-39.337 39.337v177.018c0 21.725 17.612 39.337 39.337 39.337s39.337-17.612 39.337-39.337v-177.018zM249.477 84.669c-15.362-15.362-40.269-15.362-55.631 0s-15.362 40.269 0 55.631l125.171 125.171c15.362 15.362 40.269 15.362 55.631 0s15.362-40.269 0-55.631l-125.171-125.171zM92.043 386.074c-21.725 0-39.337 17.612-39.337 39.337s17.612 39.337 39.337 39.337h177.018c21.725 0 39.337-17.612 39.337-39.337s-17.612-39.337-39.337-39.337h-177.018zM193.846 710.523c-15.362 15.362-15.362 40.269 0 55.631s40.269 15.362 55.631 0l125.171-125.171c15.362-15.362 15.362-40.269 0-55.631s-40.269-15.362-55.631 0l-125.171 125.171z" />
<glyph unicode="&#xe93a;" glyph-name="load-s" d="M498.59 861.257c0 21.544 17.465 39.010 39.010 39.010s39.010-17.465 39.010-39.010v-175.543c0-21.544-17.465-39.010-39.010-39.010s-39.010 17.465-39.010 39.010v175.543zM820.335 760.303c15.234 15.234 39.934 15.234 55.168 0s15.234-39.934 0-55.168l-124.128-124.128c-15.234-15.234-39.934-15.234-55.168 0s-15.234 39.934 0 55.168l124.128 124.128zM976.457 461.41c21.544 0 39.010-17.465 39.010-39.010s-17.465-39.010-39.010-39.010h-175.543c-21.544 0-39.010 17.465-39.010 39.010s17.465 39.010 39.010 39.010h175.543zM875.503 139.665c15.234-15.234 15.234-39.934 0-55.168s-39.934-15.234-55.168 0l-124.128 124.128c-15.234 15.234-15.234 39.934 0 55.168s39.934 15.234 55.168 0l124.128-124.128zM576.61-16.457c0-21.544-17.465-39.010-39.010-39.010s-39.010 17.465-39.010 39.010v175.543c0 21.544 17.465 39.010 39.010 39.010s39.010-17.465 39.010-39.010v-175.543zM254.865 84.497c-15.234-15.234-39.934-15.234-55.168 0s-15.234 39.934 0 55.168l124.128 124.128c15.234 15.234 39.934 15.234 55.168 0s15.234-39.934 0-55.168l-124.128-124.128zM98.743 383.39c-21.544 0-39.010 17.465-39.010 39.010s17.465 39.010 39.010 39.010h175.543c21.544 0 39.010-17.465 39.010-39.010s-17.465-39.010-39.010-39.010h-175.543zM199.697 705.135c-15.234 15.234-15.234 39.934 0 55.168s39.934 15.234 55.168 0l124.128-124.128c15.234-15.234 15.234-39.934 0-55.168s-39.934-15.234-55.168 0l-124.128 124.128z" />
<glyph unicode="&#xe93b;" glyph-name="look-over" horiz-adv-x="896" d="M864 383.996v0c-17.673 0-32 14.327-32 32v480.004h-768v-896h416.206c17.673 0 32-14.327 32-32v0c0-17.673-14.327-32-32-32h-416.206c-35.346 0-64 28.654-64 64v896c0 35.346 28.654 64 64 64h768c35.346 0 64-28.654 64-64v-480.004c0-17.673-14.327-32-32-32zM732.504 144.751l111.143-111.143c12.497-12.497 12.497-32.758 0-45.255s-32.758-12.497-45.255 0l-111.143 111.143c-31.386-22.351-69.783-35.496-111.249-35.496-106.039 0-192 85.961-192 192s85.961 192 192 192c106.039 0 192-85.961 192-192 0-41.467-13.145-79.863-35.496-111.249zM896 415.996c0-17.673-14.327-32-32-32s-32 14.327-32 32v480.004h-768v-896h416.206c17.673 0 32-14.327 32-32s-14.327-32-32-32h-416.206c-35.346 0-64 28.654-64 64v896c0 35.346 28.654 64 64 64h768c35.346 0 64-28.654 64-64v-480.004zM576 128c70.692 0 128 57.308 128 128s-57.308 128-128 128c-70.692 0-128-57.308-128-128s57.308-128 128-128zM224 768h448c17.673 0 32-14.327 32-32s-14.327-32-32-32h-448c-17.673 0-32 14.327-32 32s14.327 32 32 32zM224 576h192c17.673 0 32-14.327 32-32s-14.327-32-32-32h-192c-17.673 0-32 14.327-32 32s14.327 32 32 32z" />
<glyph unicode="&#xe93c;" glyph-name="menu-fold" d="M993.098 886.857h-962.196c-17.045 0-30.902-13.843-30.902-30.979v-61.933c0.013-17.104 13.841-30.965 30.902-30.979h962.196c17.069 0 30.902 13.867 30.902 30.979v61.933c0 17.16-13.833 30.979-30.902 30.979zM554.5 391.294c17.069 0 30.902 13.843 30.902 30.979v61.933c0 17.113-13.831 30.989-30.902 31.003h-523.598c-17.070-0.013-30.902-13.89-30.902-31.003v-61.933c0-17.136 13.833-30.979 30.902-30.979h523.598zM993.098 133.034h-961.935c-17.052-0.013-30.875-13.86-30.902-30.955v-61.957c0-17.112 13.833-30.979 30.902-30.979h961.935c17.069 0 30.902 13.867 30.902 30.979v61.957c0 17.088-13.833 30.955-30.902 30.955zM791.367 422.28l232.633-154.859v309.718z" />
<glyph unicode="&#xe93d;" glyph-name="menu-unfold" d="M993.098 886.857h-962.196c-17.045 0-30.902-13.843-30.902-30.979v-61.933c0.013-17.104 13.841-30.965 30.902-30.979h962.196c17.069 0 30.902 13.867 30.902 30.979v61.933c0 17.16-13.833 30.979-30.902 30.979zM554.5 391.294c17.069 0 30.902 13.843 30.902 30.979v61.933c0 17.113-13.831 30.989-30.902 31.003h-523.598c-17.070-0.013-30.902-13.89-30.902-31.003v-61.933c0-17.136 13.833-30.979 30.902-30.979h523.598zM993.098 133.034h-961.935c-17.052-0.013-30.875-13.86-30.902-30.955v-61.957c0-17.112 13.833-30.979 30.902-30.979h961.935c17.069 0 30.902 13.867 30.902 30.979v61.957c0 17.088-13.833 30.955-30.902 30.955zM1024 422.28l-232.633-154.859v309.718z" />
<glyph unicode="&#xe93e;" glyph-name="page-next" d="M82.89 863.768l463.59-415.15c7.331-7.331 7.331-19.218 0-26.549l-463.59-415.43c-13.615-13.615-13.615-35.69 0-49.305s35.69-13.615 49.305 0l463.59 415.43c34.562 34.562 34.562 90.597 0 125.159l-463.59 415.15c-13.615 13.615-35.69 13.615-49.305 0s-13.615-35.69 0-49.305zM362.162 863.768l463.59-415.15c7.331-7.331 7.331-19.218 0-26.549l-463.59-415.43c-13.615-13.615-13.615-35.69 0-49.305s35.69-13.615 49.305 0l463.59 415.43c34.562 34.562 34.562 90.597 0 125.159l-463.59 415.15c-13.615 13.615-35.69 13.615-49.305 0s-13.615-35.69 0-49.305z" />
<glyph unicode="&#xe93f;" glyph-name="page-pre" d="M925.041 863.768l-463.59-415.15c-7.331-7.331-7.331-19.218 0-26.549l463.59-415.43c13.615-13.615 13.615-35.69 0-49.305s-35.69-13.615-49.305 0l-463.59 415.43c-34.562 34.562-34.562 90.597 0 125.159l463.59 415.15c13.615 13.615 35.69 13.615 49.305 0s13.615-35.69 0-49.305zM645.769 863.768l-463.59-415.15c-7.331-7.331-7.331-19.218 0-26.549l463.59-415.43c13.615-13.615 13.615-35.69 0-49.305s-35.69-13.615-49.305 0l-463.59 415.43c-34.562 34.562-34.562 90.597 0 125.159l463.59 415.15c13.615 13.615 35.69 13.615 49.305 0s13.615-35.69 0-49.305z" />
<glyph unicode="&#xe940;" glyph-name="pause" d="M512-3.765c249.503 0 451.765 202.262 451.765 451.765s-202.262 451.765-451.765 451.765c-249.503 0-451.765-202.262-451.765-451.765s202.262-451.765 451.765-451.765zM512-64c-282.77 0-512 229.23-512 512s229.23 512 512 512c282.77 0 512-229.23 512-512s-229.23-512-512-512zM391.529 598.588c16.634 0 30.118-13.484 30.118-30.118v-298.602c0-16.634-13.484-30.118-30.118-30.118s-30.118 13.484-30.118 30.118v298.602c0 16.634 13.484 30.118 30.118 30.118zM632.611 598.576c16.634-0.006 30.112-13.496 30.106-30.129l-0.117-300.719c-0.006-16.634-13.496-30.112-30.129-30.106s-30.112 13.496-30.106 30.129l0.117 300.719c0.006 16.634 13.496 30.112 30.129 30.106z" />
<glyph unicode="&#xe941;" glyph-name="play" horiz-adv-x="1088" d="M529.413-3.765c249.503 0 451.765 202.262 451.765 451.765s-202.262 451.765-451.765 451.765c-249.503 0-451.765-202.262-451.765-451.765s202.262-451.765 451.765-451.765zM529.413-64c-282.77 0-512 229.23-512 512s229.23 512 512 512c282.77 0 512-229.23 512-512s-229.23-512-512-512zM500.982 628.145l191.255-127.856c29.385-19.644 37.281-59.39 17.637-88.775-4.745-7.097-10.861-13.174-17.99-17.871l-191.255-126.034c-29.514-19.449-69.207-11.29-88.656 18.224-6.889 10.453-10.56 22.697-10.56 35.216v253.889c0 35.346 28.654 64 64 64 12.663 0 25.041-3.756 35.569-10.794z" />
<glyph unicode="&#xe942;" glyph-name="project" d="M544 480h160c88.366 0 160-71.634 160-160v-2.655c90.807-15.235 160-94.209 160-189.345 0-106.039-85.961-192-192-192s-192 85.961-192 192c0 95.136 69.193 174.111 160 189.345v2.655c0 53.019-42.981 96-96 96h-384c-53.019 0-96-42.981-96-96v-2.655c90.807-15.235 160-94.209 160-189.345 0-106.039-85.961-192-192-192s-192 85.961-192 192c0 95.136 69.193 174.111 160 189.345v2.655c0 88.366 71.634 160 160 160h160v98.655c-90.807 15.234-160 94.209-160 189.345 0 106.039 85.961 192 192 192s192-85.961 192-192c0-95.136-69.193-174.111-160-189.345v-98.655zM201.899 255.623c-3.117-1.013-6.444-1.56-9.899-1.56s-6.782 0.547-9.899 1.56c-66.067-5.053-118.101-60.261-118.101-127.623 0-70.692 57.308-128 128-128s128 57.308 128 128c0 67.362-52.034 122.57-118.101 127.623zM841.899 255.623c-3.117-1.013-6.444-1.56-9.899-1.56s-6.782 0.547-9.899 1.56c-66.067-5.053-118.101-60.261-118.101-127.623 0-70.692 57.308-128 128-128s128 57.308 128 128c0 67.362-52.034 122.57-118.101 127.623zM512 896c-70.692 0-128-57.308-128-128s57.308-128 128-128c70.692 0 128 57.308 128 128s-57.308 128-128 128z" />
<glyph unicode="&#xe943;" glyph-name="rank" d="M653.996 54.521l198.206 214.739c0.49 0.531 0.999 1.044 1.526 1.538 12.161 11.412 31.271 10.805 42.683-1.356 12.512-13.332 12.597-34.066 0.196-47.501l-249.443-270.25c-6.636-9.253-17.483-15.281-29.737-15.281-20.196 0-36.569 16.372-36.569 36.569v950.451c0 20.196 16.372 36.569 36.569 36.569s36.569-16.372 36.569-36.569v-868.91zM361.43 842.382l-198.066-214.587c-0.49-0.531-0.999-1.044-1.526-1.538-12.161-11.412-31.271-10.805-42.683 1.356-12.512 13.332-12.597 34.066-0.196 47.501l253.604 274.758c0.49 0.531 0.999 1.044 1.526 1.538 4.934 4.63 11.011 7.282 17.254 7.986 2.158 0.397 4.383 0.604 6.656 0.604 20.196 0 36.569-16.372 36.569-36.569v-950.451c0-20.196-16.372-36.569-36.569-36.569s-36.569 16.372-36.569 36.569v869.402z" />
<glyph unicode="&#xe944;" glyph-name="rank-down" d="M549.541 38.626c0.416 2.208 0.634 4.485 0.634 6.813v877.714c0 20.198-16.374 36.571-36.571 36.571s-36.571-16.374-36.571-36.571v-877.714c0-3.329 0.445-6.555 1.278-9.62l-206.891 165.699c-15.765 12.626-38.78 10.082-51.407-5.683s-10.082-38.78 5.683-51.407l240.478-192.6c26.571-21.281 64.311-21.417 91.035-0.327l244.263 192.763c15.855 12.512 18.565 35.509 6.053 51.364s-35.509 18.565-51.364 6.053l-206.62-163.057z" />
<glyph unicode="&#xe945;" glyph-name="rank-up" d="M549.541 856.876c0.416-2.208 0.634-4.485 0.634-6.813v-877.714c0-20.198-16.374-36.571-36.571-36.571s-36.571 16.374-36.571 36.571v877.714c0 3.329 0.445 6.555 1.278 9.62l-206.891-165.699c-15.765-12.626-38.78-10.082-51.407 5.683s-10.082 38.78 5.683 51.407l240.478 192.6c26.571 21.281 64.311 21.417 91.035 0.327l244.263-192.763c15.855-12.512 18.565-35.509 6.053-51.364s-35.509-18.565-51.364-6.053l-206.62 163.057z" />
<glyph unicode="&#xe946;" glyph-name="rotate-left" d="M435.863 778.768c172.52-0.858 282.596-47.385 384.823-133.164 102.612-86.101 170.426-216.529 204.066-390.043 3.364-17.35-7.974-34.142-25.325-37.506s-34.142 7.974-37.506 25.325c-31.034 160.072-92.033 277.391-182.374 353.197-90.24 75.72-186.401 117.81-346.31 118.2-0.154 0-0.308 0.002-0.462 0.004l122.076-124.456c12.376-12.617 12.18-32.877-0.437-45.253s-32.877-12.18-45.253 0.437l-161.072 164.214c-24.994 24.994-24.994 50.030 0.911 75.9l161.289 149.024c12.981 11.993 33.226 11.193 45.22-1.787s11.193-33.226-1.787-45.22l-117.86-108.873c163.423-0.804 275.991-41.843 384.823-133.164 102.937-86.374 170.526-217.046 204.066-390.043-3.364 17.35-20.156 28.688-37.506 25.325s-28.688-20.156-25.325-37.506c-31.122 160.529-92.274 277.594-182.374 353.197-98.089 82.306-196.515 117.835-346.31 118.2 17.673-0.043 32.035 14.249 32.078 31.922 0.041 16.873-12.984 30.728-29.543 31.985l0.091 0.084zM64.166 447.809l639.864 0.314c35.346 0.017 64.014-28.622 64.031-63.969 0-0.184-0.001-0.367-0.002-0.551l-3.116-383.998c-0.285-35.142-28.854-63.481-63.998-63.481h-636.779c-35.346 0-64 28.654-64 64l0.031 383.652c0 35.334 28.635 63.983 63.969 64v0.031zM128.197 383.84l-64-0.063-0.031-383.652h636.779l3.116 383.998-575.864-0.282z" />
<glyph unicode="&#xe947;" glyph-name="rotate-right" d="M588.469 778.768c-172.52-0.858-282.596-47.385-384.823-133.164-102.612-86.101-170.426-216.529-204.066-390.043-3.364-17.35 7.974-34.142 25.325-37.506s34.142 7.974 37.506 25.325c31.034 160.072 92.033 277.391 182.374 353.197 90.24 75.72 186.401 117.81 346.31 118.2 0.154 0 0.308 0.002 0.462 0.004l-122.076-124.456c-12.376-12.617-12.18-32.877 0.437-45.253s32.877-12.18 45.253 0.437l161.072 164.214c24.994 24.994 24.994 50.030-0.911 75.9l-161.289 149.024c-12.981 11.993-33.226 11.193-45.22-1.787s-11.193-33.226 1.787-45.22l117.86-108.873c-163.423-0.804-275.991-41.843-384.823-133.164-102.937-86.374-170.526-217.046-204.066-390.043 3.364 17.35 20.156 28.688 37.506 25.325s28.688-20.156 25.325-37.506c31.122 160.529 92.274 277.594 182.374 353.197 98.089 82.306 196.515 117.835 346.31 118.2-17.673-0.043-32.035 14.249-32.078 31.922-0.041 16.873 12.984 30.728 29.543 31.985l-0.091 0.084zM960.166 447.809l-639.864 0.314c-35.346 0.017-64.014-28.622-64.031-63.969 0-0.184 0.001-0.367 0.002-0.551l3.116-383.998c0.285-35.142 28.854-63.481 63.998-63.481h636.779c35.346 0 64 28.654 64 64l-0.031 383.652c0 35.334-28.635 63.983-63.969 64v0.031zM896.135 383.84l64-0.063 0.031-383.652h-636.779l-3.116 383.998 575.864-0.282z" />
<glyph unicode="&#xe948;" glyph-name="show-info" d="M512-64c-282.77 0-512 229.23-512 512s229.23 512 512 512c282.77 0 512-229.23 512-512s-229.23-512-512-512zM255.471 512c-17.983 0-32.793-5.378-45.488-18.286-12.694-11.832-17.983-26.891-17.983-45.176s5.289-33.345 17.983-46.252c12.694-11.832 27.504-18.286 45.488-18.286s32.793 6.454 45.488 18.286c12.694 11.832 19.041 26.891 19.041 46.252 0 18.286-6.347 33.345-17.983 45.176-12.694 12.908-28.562 18.286-46.545 18.286zM511.471 512c-17.983 0-32.793-5.378-45.488-18.286-12.694-11.832-17.983-26.891-17.983-45.176s5.289-33.345 17.983-46.252c12.694-11.832 27.504-18.286 45.488-18.286s32.793 6.454 45.488 18.286c12.694 11.832 19.041 26.891 19.041 46.252 0 18.286-6.347 33.345-17.983 45.176-12.694 12.908-28.562 18.286-46.545 18.286zM767.471 512c-17.983 0-32.793-5.378-45.488-18.286-12.694-11.832-17.983-26.891-17.983-45.176s5.289-33.345 17.983-46.252c12.694-11.832 27.504-18.286 45.488-18.286s32.793 6.454 45.488 18.286c12.694 11.832 19.041 26.891 19.041 46.252 0 18.286-6.347 33.345-17.983 45.176-12.694 12.908-28.562 18.286-46.545 18.286z" />
<glyph unicode="&#xe949;" glyph-name="show-info-out" d="M512-64c-282.77 0-512 229.23-512 512s229.23 512 512 512c282.77 0 512-229.23 512-512s-229.23-512-512-512zM512 0c247.424 0 448 200.576 448 448s-200.576 448-448 448c-247.424 0-448-200.576-448-448s200.576-448 448-448zM255.471 512c17.983 0 33.851-5.378 46.545-18.286 11.636-11.832 17.983-26.891 17.983-45.176 0-19.361-6.347-34.42-19.041-46.252s-27.504-18.286-45.488-18.286c-17.983 0-32.793 6.454-45.488 18.286-12.694 12.908-17.983 27.966-17.983 46.252s5.289 33.345 17.983 45.176c12.694 12.908 27.504 18.286 45.488 18.286zM511.471 512c17.983 0 33.851-5.378 46.545-18.286 11.636-11.832 17.983-26.891 17.983-45.176 0-19.361-6.347-34.42-19.041-46.252s-27.504-18.286-45.488-18.286c-17.983 0-32.793 6.454-45.488 18.286-12.694 12.908-17.983 27.966-17.983 46.252s5.289 33.345 17.983 45.176c12.694 12.908 27.504 18.286 45.488 18.286zM767.471 512c17.983 0 33.851-5.378 46.545-18.286 11.636-11.832 17.983-26.891 17.983-45.176 0-19.361-6.347-34.42-19.041-46.252s-27.504-18.286-45.488-18.286c-17.983 0-32.793 6.454-45.488 18.286-12.694 12.908-17.983 27.966-17.983 46.252s5.289 33.345 17.983 45.176c12.694 12.908 27.504 18.286 45.488 18.286z" />
<glyph unicode="&#xe94a;" glyph-name="shuffle" d="M805.523 197.92l208.485-208.454c12.657-12.655 12.868-32.962 0.237-45.591l2.030 2.030c-12.526-12.524-32.489-12.871-45.598 0.237l-208.485 208.454c-80.843-70.763-186.711-113.648-302.598-113.648-253.827 0-459.594 205.737-459.594 459.527s205.767 459.527 459.594 459.527c253.827 0 459.594-205.737 459.594-459.527 0-115.87-42.891-221.723-113.665-302.554zM459.594 102.217c219.983 0 398.315 178.306 398.315 398.257s-178.332 398.257-398.315 398.257c-219.983 0-398.315-178.306-398.315-398.257s178.332-398.257 398.315-398.257zM371.814 578.034l52.189-231.898c4.656-20.69 25.204-33.688 45.894-29.032 12.077 2.718 22.102 11.091 26.929 22.49l67.557 159.539 67.357-54.052h136.26c17.673 0 32 14.327 32 32s-14.327 32-32 32h-113.756l-76.203 61.151c-4.281 3.123-4.281 3.123-9.060 5.411-19.529 8.27-42.064-0.858-50.334-20.387l-49.695-117.357-53.477 237.62c-2.838 12.609-11.828 22.945-23.923 27.503-19.846 7.478-41.996-2.548-49.474-22.394l-64.64-171.547h-114.549c-17.673 0-32-14.327-32-32s14.327-32 32-32h158.826l50.097 132.954z" />
<glyph unicode="&#xe94b;" glyph-name="stop" d="M512-3.765c249.503 0 451.765 202.262 451.765 451.765s-202.262 451.765-451.765 451.765c-249.503 0-451.765-202.262-451.765-451.765s202.262-451.765 451.765-451.765zM512-64c-282.77 0-512 229.23-512 512s229.23 512 512 512c282.77 0 512-229.23 512-512s-229.23-512-512-512zM384 640h256c35.346 0 64-28.654 64-64v-256c0-35.346-28.654-64-64-64h-256c-35.346 0-64 28.654-64 64v256c0 35.346 28.654 64 64 64z" />
<glyph unicode="&#xe94c;" glyph-name="trash-a" d="M896 736v-704.096c0-35.293-29.223-63.904-64.277-63.904h-640.869c-35.499 0-64.119 28.639-63.925 63.904l3.883 704.096h-99.044c-17.546 0-31.769 14.844-31.769 32 0 17.673 14.476 32 31.769 32h960.462c17.546 0 31.769-14.844 31.769-32 0-17.673-14.476-32-31.769-32h-96.231zM190.931 32h640.792c0.013 0 0.277 704 0.277 704h-637.186l-3.883-704zM256 896c0 17.673 14.771 32 32.028 32h447.944c17.689 0 32.028-14.844 32.028-32 0-17.673-14.771-32-32.028-32h-447.944c-17.689 0-32.028 14.844-32.028 32zM576 575.781c0 17.794 14.844 32.219 32 32.219 17.673 0 32-14.906 32-32.219v-383.562c0-17.794-14.844-32.219-32-32.219-17.673 0-32 14.906-32 32.219v383.562zM384 575.781c0 17.794 14.844 32.219 32 32.219 17.673 0 32-14.906 32-32.219v-383.562c0-17.794-14.844-32.219-32-32.219-17.673 0-32 14.906-32 32.219v383.562z" />
<glyph unicode="&#xe94d;" glyph-name="uneject" d="M963.275 483.154l-678.791 433.299c-19.862 12.679-46.242 6.856-58.921-13.007-4.377-6.857-6.703-14.822-6.703-22.957v-866.599c0-23.564 19.103-42.667 42.667-42.667 8.135 0 16.1 2.326 22.957 6.703l678.791 433.299c19.862 12.679 25.686 39.059 13.007 58.921-3.338 5.23-7.777 9.668-13.007 13.007zM90.932 958.344c-23.564 0-42.667-19.103-42.667-42.667v-938.667c0-23.564 19.103-42.667 42.667-42.667s42.667 19.103 42.667 42.667v938.667c0 23.564-19.103 42.667-42.667 42.667z" />
<glyph unicode="&#xe94e;" glyph-name="user" horiz-adv-x="960" d="M780.8 658c0 166.758-134.641 302-300.8 302s-300.8-135.242-300.8-302c0-97.806 46.746-186.88 121.652-242.665-178.408-71.978-300.852-247.193-300.852-447.335 0-17.673 14.327-32 32-32s32 14.327 32 32c0 196.393 135.876 365.073 323.962 407.742 30.644 6.952 33.96 49.295 4.771 60.932-89.505 35.684-149.533 122.867-149.533 221.326 0 131.476 106.051 238 236.8 238s236.8-106.524 236.8-238c0-98.459-60.028-185.642-149.533-221.326-29.188-11.637-25.873-53.98 4.771-60.932 188.086-42.669 323.962-211.348 323.962-407.742 0-17.673 14.327-32 32-32s32 14.327 32 32c0 200.142-122.444 375.357-300.852 447.335 74.905 55.785 121.652 144.859 121.652 242.665z" />
<glyph unicode="&#xe94f;" glyph-name="zoom" d="M805.523 197.92l208.485-208.454c12.657-12.655 12.868-32.962 0.237-45.591l2.030 2.030c-12.526-12.524-32.489-12.871-45.598 0.237l-208.485 208.454c-80.843-70.763-186.711-113.648-302.598-113.648-253.827 0-459.594 205.737-459.594 459.527s205.767 459.527 459.594 459.527c253.827 0 459.594-205.737 459.594-459.527 0-115.87-42.891-221.723-113.665-302.554zM459.594 102.217c219.983 0 398.315 178.306 398.315 398.257s-178.332 398.257-398.315 398.257c-219.983 0-398.315-178.306-398.315-398.257s178.332-398.257 398.315-398.257zM430.685 525.223v137.143c0 15.148 12.28 27.429 27.429 27.429s27.429-12.28 27.429-27.429v-137.143h137.143c15.148 0 27.429-12.28 27.429-27.429s-12.28-27.429-27.429-27.429h-137.143v-137.143c0-15.148-12.28-27.429-27.429-27.429s-27.429 12.28-27.429 27.429v137.143h-137.143c-15.148 0-27.429 12.28-27.429 27.429s12.28 27.429 27.429 27.429h137.143z" />
<glyph unicode="&#xe950;" glyph-name="zoom-out" d="M805.523 197.92l208.485-208.454c12.657-12.655 12.868-32.962 0.237-45.591l2.030 2.030c-12.526-12.524-32.489-12.871-45.598 0.237l-208.485 208.454c-80.843-70.763-186.711-113.648-302.598-113.648-253.827 0-459.594 205.737-459.594 459.527s205.767 459.527 459.594 459.527c253.827 0 459.594-205.737 459.594-459.527 0-115.87-42.891-221.723-113.665-302.554zM459.594 102.217c219.983 0 398.315 178.306 398.315 398.257s-178.332 398.257-398.315 398.257c-219.983 0-398.315-178.306-398.315-398.257s178.332-398.257 398.315-398.257zM275.752 531.108h367.684c16.919 0 30.635-13.716 30.635-30.635s-13.716-30.635-30.635-30.635h-367.684c-16.919 0-30.635 13.716-30.635 30.635s13.716 30.635 30.635 30.635z" />
</font>
</defs>
</svg>
