<?xml version="1.0" standalone="no"?>
<!DOCTYPE svg PUBLIC "-//W3C//DTD SVG 1.1//EN" "http://www.w3.org/Graphics/SVG/1.1/DTD/svg11.dtd" >
<svg xmlns="http://www.w3.org/2000/svg">
<metadata>Generated by IcoMoon</metadata>
<defs>
<font id="icomoon" horiz-adv-x="1024">
<font-face units-per-em="1024" ascent="960" descent="-64" />
<missing-glyph horiz-adv-x="1024" />
<glyph unicode="&#x20;" horiz-adv-x="512" d="" />
<glyph unicode="&#xe900;" glyph-name="android-bulb" horiz-adv-x="896" d="M544.031 159.36l-204.169-52.627c-15.512-3.599-25.596-18.583-23.084-34.303 1.86-14.672 13.298-29.62 31.421-29.62 2.955 0.020 5.895 0.413 8.752 1.171l204.1 52.558c15.512 3.599 25.596 18.583 23.084 34.304-1.861 14.74-13.23 29.618-31.421 29.618-2.929-0.005-5.846-0.375-8.683-1.102zM486.692 14.87c-13.574-9.299-26.598-14.465-38.656-15.154h-1.585c-8.237 0.457-16.256 2.815-23.429 6.888-0.689 0.345-3.376 2.135-5.168 3.306-4.962 3.306-6.339 4.202-7.993 4.409-4.682 2.436-9.881 3.712-15.16 3.72-15.033-0.157-28.433-9.507-33.764-23.558-3.928-11.366-0.207-22.869 9.922-30.928 22.877-17.978 49.612-27.552 77.175-27.552 25.22 0 50.232 8.059 72.282 23.283 12.321 8.205 17.58 23.667 12.816 37.679-4.41 14.19-16.125 23.695-29.147 23.695-6.229-0.052-12.271-2.097-17.293-5.787zM581.122 755.605c-39.516 21.54-83.845 32.725-128.854 32.515-39.001 0-78.208-8.269-113.489-23.905-36.797-16.169-69.345-40.642-95.091-71.499-48.097-57.654-68.424-141.139-54.229-223.177 13.574-78.87 56.778-145.066 118.518-181.642 4.94-3.020 10.609-4.639 16.399-4.684 14.861 0.521 27.547 10.892 31.007 25.349 4.116 13.772-1.939 28.549-14.539 35.474-82.549 48.907-106.047 166.695-80.414 247.838 24.875 78.663 101.016 131.565 189.492 131.565 37.279 0 73.592-9.643 104.944-27.897 42.446-24.66 72.765-65.783 85.443-115.791 13.749-53.486 5.563-110.246-22.739-157.672-11.232-18.392-25.771-35.405-39.828-51.8-9.027-10.47-18.398-21.353-26.874-32.581-14.47-19.287-18.881-39.952-23.222-59.859l-2.342-10.677-186.185-49.526c-15.577-3.725-25.624-18.852-23.015-34.647 1.929-14.534 13.23-29.344 31.214-29.344 3.027 0.023 6.039 0.44 8.958 1.24l145.254 38.642c5.374 1.447 10.68 2.755 15.711 3.995 39.759 9.781 71.111 17.565 74.763 74.943 1.31 20.251 18.674 39.263 34.040 55.864 3.928 4.34 7.649 8.335 11.025 12.399 18.467 21.56 41.413 50.904 55.952 85.551 30.733 73.153 25.289 155.191-15.16 230.961l0.002 0.068c-22.061 41.427-55.666 75.571-96.744 98.295zM95.608 551.163h-63.118c-17.944 0-32.49-14.541-32.49-32.478s14.546-32.478 32.49-32.478h62.981c17.916 0 32.387 14.534 32.387 32.443 0.137 17.91-14.333 32.513-32.249 32.513zM863.51 551.163h-62.912c-17.944 0-32.49-14.541-32.49-32.478s14.546-32.478 32.49-32.478h62.912c17.944 0 32.49 14.541 32.49 32.478s-14.546 32.478-32.49 32.478zM176.918 744.929c13.526-11.815 34.073-10.431 45.891 3.090 10.71 12.252 10.71 30.533 0 42.786l-44.514 44.636c-13.526 11.815-34.073 10.431-45.891-3.090-10.71-12.252-10.71-30.533 0-42.786l44.514-44.636zM720.863 292.372c-13.526 11.815-34.073 10.431-45.891-3.090-10.71-12.252-10.71-30.533 0-42.786l44.514-44.567c13.526-11.815 34.073-10.431 45.891 3.090 10.71 12.252 10.71 30.533 0 42.786l-44.514 44.567zM481.276 866.023v63.028c-0.826 17.899-16.010 31.74-33.915 30.915-16.75-0.772-30.153-14.171-30.925-30.915v-63.028c0-17.909 14.47-32.443 32.386-32.443 17.984 0 32.455 14.534 32.455 32.443zM177.009 292.463l-0.091-0.091-44.514-44.567c-12.672-12.668-12.672-33.207 0-45.875s33.219-12.668 45.891 0l44.514 44.498c12.678 12.692 12.678 33.252 0 45.944-12.622 12.668-33.128 12.709-45.8 0.091zM674.972 744.929c12.622-12.668 33.128-12.709 45.8-0.091l0.091 0.091 44.514 44.567c12.672 12.668 12.672 33.207 0 45.875s-33.219 12.668-45.891 0l-44.514-44.498c-12.678-12.694-12.678-33.252 0-45.944z" />
<glyph unicode="&#xe901;" glyph-name="android-time" d="M511.658 5.067c244.862 0 443.261 198.253 443.163 442.819 0 244.67-198.41 442.933-443.277 442.933-244.825 0-443.277-198.336-443.277-442.933 0-244.544 198.513-442.819 443.391-442.819zM511.543 959.086c282.542 0 511.543-228.8 511.543-511.2 0.114-282.286-228.887-511.086-511.429-511.086s-511.658 228.8-511.658 511.086c0 282.286 229.002 511.2 511.543 511.2zM514.133 755.2h-4.267c-17.673 0-32-14.327-32-32v0-277.333c0-5.539 1.407-10.749 3.883-15.292 2.97-8.887 9.845-16.394 19.36-19.857v0l196.458-71.505c16.607-6.045 34.97 2.518 41.015 19.126v0l1.459 4.009c6.045 16.607-2.518 34.97-19.126 41.015v0l-174.805 63.691 0.021 256.146c0 15.709-11.32 28.775-26.248 31.484l-5.752 0.516z" />
<glyph unicode="&#xe902;" glyph-name="compose" d="M256 224c-2.073-31.505 11.965-68.875 64-64 0 0 193.078 64.036 192 69.771 0 0 512 513.28 512 506.229 0 56.273-120.157 179.291-182.883 191.087-3.196 0.601-6.243 0.913-9.117 0.913 7.262 0-512-512-512-512l-64-192zM838.875 643.311l-104.128 92.689 112.511 114.079c0 0 101.087-80.733 102.885-105.771l-111.268-100.997zM451.418 928c17.673 0 32-14.327 32-32s-14.327-32-32-32v0h-355.418c-17.673 0-32-14.327-32-32v0-768c0-17.673 14.327-32 32-32v0h768c17.673 0 32 14.327 32 32v0 218.273c0 17.673 14.327 32 32 32s32-14.327 32-32v0-218.273c0-53.019-42.981-96-96-96v0h-768c-53.019 0-96 42.981-96 96v0 768c0 53.019 42.981 96 96 96v0zM684.275 689.186l104.909-97.316-309.185-310.363-160-57.507 54.397 160.534 309.878 304.652z" />
<glyph unicode="&#xe903;" glyph-name="eye-disabled" d="M185.567 428.749c-0.888-1.176-1.868-2.305-2.94-3.377l-108.612-108.612c-12.497-12.497-32.758-12.497-45.255 0s-12.497 32.758 0 45.255l108.012 108.012c-53.59 51.016-97.085 113.227-126.661 183.76-6.834 16.298 0.838 35.051 17.137 41.885s35.051-0.838 41.885-17.137c74.199-176.954 247.674-294.536 442.867-294.536 194.614 0 367.673 116.884 442.243 293.055 6.889 16.275 25.667 23.884 41.942 16.995s23.884-25.667 16.995-41.942c-29.565-69.848-72.795-131.474-125.953-182.081l108.012-108.012c12.497-12.497 12.497-32.758 0-45.255s-32.758-12.497-45.255 0l-108.612 108.612c-1.072 1.072-2.051 2.2-2.939 3.376-48.914-36.686-103.986-65.133-163.046-83.715l61.358-125.681c7.753-15.882 1.164-35.041-14.717-42.795s-35.041-1.164-42.795 14.717l-67.335 137.922c-32.507-6.052-65.913-9.198-99.899-9.198-35.636 0-70.634 3.459-104.626 10.1l-70.163-139.19c-7.955-15.781-27.198-22.126-42.979-14.171s-22.126 27.198-14.171 42.979l63.916 126.797c-57.309 18.599-110.78 46.511-158.41 82.234v0z" />
<glyph unicode="&#xe904;" glyph-name="android-close" d="M270.556 725.064l3.545-2.962 237.898-237.904 237.898 237.904c9.997 9.997 26.206 9.997 36.204 0 8.887-8.887 9.874-22.681 2.962-32.658l-2.962-3.545-237.904-237.898 237.904-237.898c9.997-9.997 9.997-26.206 0-36.204-8.887-8.887-22.681-9.874-32.658-2.962l-3.545 2.962-237.898 237.904-237.898-237.904c-9.997-9.997-26.206-9.997-36.204 0-8.887 8.887-9.874 22.681-2.962 32.658l2.962 3.545 237.904 237.898-237.904 237.898c-9.997 9.997-9.997 26.206 0 36.204 8.887 8.887 22.681 9.874 32.658 2.962z" />
<glyph unicode="&#xe905;" glyph-name="menu-fold" d="M993.098 886.857h-962.196c-17.045 0-30.902-13.843-30.902-30.979v-61.933c0.013-17.104 13.841-30.965 30.902-30.979h962.196c17.069 0 30.902 13.867 30.902 30.979v61.933c0 17.16-13.833 30.979-30.902 30.979zM554.5 391.294c17.069 0 30.902 13.843 30.902 30.979v61.933c0 17.113-13.831 30.989-30.902 31.003h-523.598c-17.070-0.013-30.902-13.89-30.902-31.003v-61.933c0-17.136 13.833-30.979 30.902-30.979h523.598zM993.098 133.034h-961.935c-17.052-0.013-30.875-13.86-30.902-30.955v-61.957c0-17.112 13.833-30.979 30.902-30.979h961.935c17.069 0 30.902 13.867 30.902 30.979v61.957c0 17.088-13.833 30.955-30.902 30.955zM791.367 422.28l232.633-154.859v309.718z" />
<glyph unicode="&#xe906;" glyph-name="menu-unfold" d="M993.098 886.857h-962.196c-17.045 0-30.902-13.843-30.902-30.979v-61.933c0.013-17.104 13.841-30.965 30.902-30.979h962.196c17.069 0 30.902 13.867 30.902 30.979v61.933c0 17.16-13.833 30.979-30.902 30.979zM554.5 391.294c17.069 0 30.902 13.843 30.902 30.979v61.933c0 17.113-13.831 30.989-30.902 31.003h-523.598c-17.070-0.013-30.902-13.89-30.902-31.003v-61.933c0-17.136 13.833-30.979 30.902-30.979h523.598zM993.098 133.034h-961.935c-17.052-0.013-30.875-13.86-30.902-30.955v-61.957c0-17.112 13.833-30.979 30.902-30.979h961.935c17.069 0 30.902 13.867 30.902 30.979v61.957c0 17.088-13.833 30.955-30.902 30.955zM1024 422.28l-232.633-154.859v309.718z" />
<glyph unicode="&#xe907;" glyph-name="look-over" horiz-adv-x="896" d="M864 383.996c-17.673 0-32 14.327-32 32v480.004h-768v-896h416.206c17.673 0 32-14.327 32-32s-14.327-32-32-32h-416.206c-35.346 0-64 28.654-64 64v896c0 35.346 28.654 64 64 64h768c35.346 0 64-28.654 64-64v-480.004c0-17.673-14.327-32-32-32zM832 960c35.346 0 64-28.654 64-64v0-480.004c0-17.673-14.327-32-32-32s-32 14.327-32 32v0 480.004h-768v-896h416.206c17.673 0 32-14.327 32-32s-14.327-32-32-32v0h-416.206c-35.346 0-64 28.654-64 64v0 896c0 35.346 28.654 64 64 64v0zM576 448c106.039 0 192-85.961 192-192 0-41.465-13.144-79.859-35.493-111.244l111.14-111.147c12.497-12.497 12.497-32.758 0-45.255s-32.758-12.497-45.255 0l-111.147 111.14c-31.385-22.349-69.78-35.493-111.244-35.493-106.039 0-192 85.961-192 192s85.961 192 192 192zM576 384c-70.692 0-128-57.308-128-128s57.308-128 128-128c70.692 0 128 57.308 128 128s-57.308 128-128 128zM416 576c17.673 0 32-14.327 32-32s-14.327-32-32-32h-192c-17.673 0-32 14.327-32 32s14.327 32 32 32h192zM672 768c17.673 0 32-14.327 32-32s-14.327-32-32-32h-448c-17.673 0-32 14.327-32 32s14.327 32 32 32h448z" />
<glyph unicode="&#xe908;" glyph-name="jump-out" d="M341.030 857.52c0-18.85-15.281-34.131-34.131-34.131h-238.683v-819.128h818.543v238.931c0 18.837 15.271 34.108 34.108 34.108s34.108-15.271 34.108-34.108v-238.931c0-37.7-30.541-68.261-68.216-68.261h-818.543c-37.675 0-68.216 30.562-68.216 68.261v819.128c0 37.7 30.541 68.261 68.216 68.261h238.683c18.85 0 34.131-15.281 34.131-34.131zM955.784 836.922l-470.631-465.586c-13.923-13.774-36.376-13.653-50.151 0.27-0.272 0.275-0.539 0.554-0.802 0.837-13.911 15.013-13.486 38.332 0.963 52.829l464.938 466.467h-251.268c-18.85 0-34.131 15.281-34.131 34.131s15.281 34.131 34.131 34.131h306.899c37.703 0 68.267-30.564 68.267-68.267v-307.192c0-18.837-15.271-34.108-34.108-34.108s-34.108 15.271-34.108 34.108v252.381z" />
<glyph unicode="&#xe909;" glyph-name="arrow-swap" d="M1015.070 599.635c5.767-8.443 8.93-18.207 8.93-28.71 0-28.277-22.923-51.2-51.2-51.2h-921.6c-28.277 0-51.2 22.923-51.2 51.2s22.923 51.2 51.2 51.2l801.382 0.048-167.956 174.698c-19.561 20.353-18.958 52.699 1.349 72.308l0.088 0.085c18.037 17.419 45.591 18.908 65.254 4.772l6.97-6.033c0.028-0.029 0.057-0.059 0.085-0.088l252.143-262.364c0.493-0.536 0.974-1.083 1.443-1.64l3.112-4.278zM8.93 291.69c-5.767 8.443-8.93 18.207-8.93 28.71 0 28.277 22.923 51.2 51.2 51.2h921.6c28.277 0 51.2-22.923 51.2-51.2s-22.923-51.2-51.2-51.2l-801.382-0.048 167.956-174.698c19.561-20.353 18.958-52.699-1.349-72.308l-0.088-0.085c-18.037-17.419-45.591-18.908-65.254-4.772l-6.97 6.033c-0.028 0.029-0.057 0.059-0.085 0.088l-252.143 262.364c-0.493 0.536-0.974 1.083-1.443 1.64l-3.112 4.278z" />
<glyph unicode="&#xe90a;" glyph-name="uneject" d="M85.333 960c-23.564 0-42.667-19.103-42.667-42.667v-938.667c0-23.564 19.103-42.667 42.667-42.667s42.667 19.103 42.667 42.667v938.667c0 23.564-19.103 42.667-42.667 42.667zM219.963 905.103c-4.377-6.857-6.703-14.822-6.703-22.957v-866.599c0-23.564 19.103-42.667 42.667-42.667 8.135 0 16.1 2.326 22.957 6.703l678.791 433.299c19.862 12.679 25.686 39.059 13.007 58.921-3.338 5.23-7.777 9.668-13.007 13.007l-678.791 433.299c-19.862 12.679-46.242 6.856-58.921-13.007z" />
<glyph unicode="&#xe90b;" glyph-name="import" d="M341.030 857.52c0-18.85-15.281-34.131-34.131-34.131h-238.683v-819.128h818.543v238.931c0 18.837 15.271 34.108 34.108 34.108s34.108-15.271 34.108-34.108v-238.931c0-37.7-30.541-68.261-68.216-68.261h-818.543c-37.675 0-68.216 30.562-68.216 68.261v819.128c0 37.7 30.541 68.261 68.216 68.261h238.683c18.85 0 34.131-15.281 34.131-34.131zM477.513 468.645l470.631 465.586c13.923 13.774 36.376 13.653 50.151-0.27 0.272-0.275 0.539-0.554 0.802-0.837 13.911-15.013 13.486-38.332-0.963-52.829l-464.938-466.467h251.268c18.85 0 34.131-15.281 34.131-34.131s-15.281-34.131-34.131-34.131h-306.95c-37.675 0-68.216 30.562-68.216 68.261v307.198c0 18.837 15.271 34.108 34.108 34.108s34.108-15.271 34.108-34.108v-252.381z" />
<glyph unicode="&#xe90c;" glyph-name="android-pin" horiz-adv-x="896" d="M554.304 534.566c9.887-49.013-16.733-98.084-63.603-117.247s-100.963-3.093-129.246 38.398c-28.283 41.491-22.893 96.87 12.877 132.318 20.026 19.845 47.276 30.987 75.689 30.947 50.751-0.073 94.396-35.403 104.283-84.416zM282.263 546.176c-15.826-78.917 27.165-157.853 102.684-188.54s162.538-4.581 207.846 62.356c45.308 66.937 36.29 156.065-21.541 212.884-32.090 31.727-75.755 49.47-121.231 49.264-81.698-0.124-151.933-57.047-167.759-135.964zM742.613 835.702c-76.986 78.417-183.007 122.697-293.776 122.697s-216.79-44.281-293.776-122.697c-162.030-165.001-162.030-426.774 0-591.775l293.776-296.203 293.776 296.203c162.030 165.001 162.030 426.774 0 591.775zM448.837 32.984l-249.517 252.625c-137.762 139.881-137.762 362.212 0 502.093 65.474 66.446 155.491 103.945 249.517 103.945s184.043-37.5 249.517-103.945c137.762-139.881 137.762-362.212 0-502.093l-249.517-252.625z" />
<glyph unicode="&#xe90d;" glyph-name="pin" horiz-adv-x="896" d="M448.837 958.399c110.768 0 216.79-44.281 293.776-122.697 162.030-165.001 162.030-426.774 0-591.775v0l-293.776-296.203-293.776 296.203c-162.030 165.001-162.030 426.774 0 591.775 76.986 78.417 183.007 122.697 293.776 122.697zM450.021 682.14c-81.698-0.124-151.933-57.047-167.759-135.964s27.165-157.853 102.684-188.54c75.519-30.687 162.538-4.581 207.846 62.356s36.29 156.065-21.541 212.884c-32.090 31.727-75.755 49.47-121.231 49.264z" />
<glyph unicode="&#xe90e;" glyph-name="shuffle" d="M459.594 960c253.827 0 459.594-205.737 459.594-459.527 0-115.877-42.897-221.737-113.679-302.569l208.498-208.439c11.251-11.249 12.667-28.544 3.972-41.118l-3.004-3.515-3.132-2.65c-12.447-8.713-29.514-7.692-41.167 3.959l-208.51 208.432c-80.839-70.75-186.698-113.627-302.573-113.627-253.827 0-459.594 205.737-459.594 459.527s205.767 459.527 459.594 459.527zM459.594 898.73c-219.983 0-398.315-178.306-398.315-398.257s178.332-398.257 398.315-398.257c219.983 0 398.315 178.306 398.315 398.257s-178.332 398.257-398.315 398.257zM371.814 578.034l52.189-231.898c4.656-20.69 25.204-33.688 45.894-29.032 12.077 2.718 22.102 11.091 26.929 22.49l67.557 159.539 67.357-54.052h136.26c17.673 0 32 14.327 32 32s-14.327 32-32 32h-113.756l-76.203 61.151c-4.281 3.123-4.281 3.123-9.060 5.411-19.529 8.27-42.064-0.858-50.334-20.387l-49.695-117.357-53.477 237.62c-2.838 12.609-11.828 22.945-23.923 27.503-19.846 7.478-41.996-2.548-49.474-22.394l-64.64-171.547h-114.549c-17.673 0-32-14.327-32-32s14.327-32 32-32h158.826l50.097 132.954z" />
<glyph unicode="&#xe90f;" glyph-name="zoom" d="M459.594 960c253.827 0 459.594-205.737 459.594-459.527 0-115.877-42.897-221.737-113.679-302.569l208.498-208.439c11.251-11.249 12.667-28.544 3.972-41.118l-3.004-3.515-3.132-2.65c-12.447-8.713-29.514-7.692-41.167 3.959l-208.51 208.432c-80.839-70.75-186.698-113.627-302.573-113.627-253.827 0-459.594 205.737-459.594 459.527s205.767 459.527 459.594 459.527zM459.594 898.73c-219.983 0-398.315-178.306-398.315-398.257s178.332-398.257 398.315-398.257c219.983 0 398.315 178.306 398.315 398.257s-178.332 398.257-398.315 398.257zM458.113 689.794c15.148 0 27.429-12.28 27.429-27.429l-0.037-137.115 137.179-0.027c15.148 0 27.429-12.28 27.429-27.429s-12.28-27.429-27.429-27.429l-137.179 0.037 0.037-137.179c0-15.148-12.28-27.429-27.429-27.429s-27.429 12.28-27.429 27.429l-0.027 137.179-137.115-0.037c-15.148 0-27.429 12.28-27.429 27.429s12.28 27.429 27.429 27.429l137.115 0.027 0.027 137.115c0 15.148 12.28 27.429 27.429 27.429z" />
<glyph unicode="&#xe910;" glyph-name="ios-loop-strong" horiz-adv-x="1088" d="M112.936 436.277c3.815-3.038 3.815-3.038 6.896-6.817l66.561-91.258c9.842-13.494 6.881-32.411-6.612-42.253-5.175-3.775-11.415-5.808-17.82-5.808l-29.192-0.005c63.506-150.644 211.815-251.564 379.231-251.564 179.174 0 336.119 115.582 391.050 283.16 5.898 17.993 25.266 27.799 43.26 21.9s27.799-25.266 21.9-43.26c-64.098-195.543-247.178-330.372-456.21-330.372-203.811 0-383.34 128.201-451.522 316.769-0.408 1.128-0.753 2.263-1.037 3.401l-28.997-0.029c-16.702 0-30.241 13.539-30.241 30.241 0 6.286 1.959 12.415 5.604 17.536l64.955 91.258c9.685 13.607 28.567 16.786 42.173 7.101zM512 930c203.172 0 382.259-127.399 450.918-315.109 0.807-2.207 1.374-4.444 1.712-6.681l29.455 0.001c6.405 0 12.645-2.034 17.82-5.808 11.994-8.748 15.666-24.667 9.422-37.574l-2.81-4.679-66.561-91.258c-3.081-3.779-3.081-3.779-6.896-6.817-12.095-8.609-28.358-7.053-38.624 2.955l-3.549 4.146-64.955 91.258c-3.645 5.121-5.604 11.25-5.604 17.536 0 14.846 10.698 27.193 24.805 29.754l5.436 0.487 29.332 0.052c-63.149 151.569-211.925 253.166-379.902 253.166-180.494 0-338.324-117.285-392.165-286.614-5.738-18.045-25.018-28.022-43.063-22.285s-28.022 25.018-22.285 43.063c62.828 197.592 246.939 334.407 457.512 334.407z" />
<glyph unicode="&#xe911;" glyph-name="close-circled" d="M512 960c282.77 0 512-229.23 512-512s-229.23-512-512-512c-282.77 0-512 229.23-512 512s229.23 512 512 512zM308.535 696.023c-12.497 12.497-32.758 12.497-45.255 0s-12.497-32.758 0-45.255v0l203.647-203.647-203.647-203.647c-12.497-12.497-12.497-32.758 0-45.255s32.758-12.497 45.255 0v0l203.647 203.647 203.647-203.647c12.497-12.497 32.758-12.497 45.255 0s12.497 32.758 0 45.255v0l-203.647 203.647 203.647 203.647c12.497 12.497 12.497 32.758 0 45.255s-32.758 12.497-45.255 0v0l-203.647-203.647z" />
<glyph unicode="&#xe912;" glyph-name="download" d="M512 832c157.225 0 287.966-113.388 314.912-262.852 112.967-26.546 197.088-128.023 197.088-249.148 0-137.101-107.774-249.029-243.223-255.687l-12.777-0.313h-512c-141.385 0-256 114.615-256 256 0 121.125 84.121 222.603 197.128 249.198 26.905 149.414 157.647 262.802 314.872 262.802zM512 768c-120.050 0-222.807-83.254-249.337-197.758l-2.548-12.386-7.443-41.334-40.882-9.621c-85.941-20.225-147.79-97.342-147.79-186.9 0-102.252 79.931-185.834 180.719-191.674l11.281-0.326 521.635 0.236c101.881 5.008 182.365 89.303 182.365 191.764 0 85.661-56.582 159.935-136.666 183.894l-11.063 2.952-40.892 9.609-7.453 41.339c-21.795 120.894-127.585 210.206-251.927 210.206zM512 640c15.709 0 28.775-11.32 31.484-26.248l0.516-5.752-0.057-288h82.802c17.673 0 32-14.327 32-32 0-8.487-3.371-16.626-9.373-22.627l-114.745-114.745c-12.497-12.497-32.758-12.497-45.255 0l-114.745 114.745c-12.497 12.497-12.497 32.758 0 45.255 6.001 6.001 14.14 9.373 22.627 9.373h82.688l0.057 288c0 17.673 14.327 32 32 32z" />
<glyph unicode="&#xe913;" glyph-name="arrow-down-b" d="M428.573 89.658l-378.843 458.833c-33.757 40.884-27.979 101.393 12.906 135.15 17.202 14.203 38.814 21.972 61.122 21.972h771.674c53.019 0 96-42.981 96-96 0-22.897-8.184-45.041-23.076-62.434l-392.831-458.833c-34.482-40.275-95.084-44.972-135.359-10.49-4.197 3.593-8.076 7.542-11.593 11.802z" />
<glyph unicode="&#xe914;" glyph-name="bell-close" horiz-adv-x="896" d="M446.801 960c53.019 0 96-42.981 96-96v-46.097c130.446-40.099 225.199-160.774 225.199-303.412v-194.421c70.692 0 128-57.308 128-128 0-40.122-18.46-75.932-47.35-99.401l33.819-33.813c12.497-12.497 12.497-32.758 0-45.255s-32.758-12.497-45.255 0l-51.697 51.658c-5.727-0.784-11.575-1.189-17.517-1.189h-192c0-70.692-57.308-128-128-128s-128 57.308-128 128h-192c-70.692 0-128 57.308-128 128s57.308 128 128 128v194.421c0 59.6 16.543 115.366 45.321 163.021l-150.694 150.676c-12.497 12.497-12.497 32.758 0 45.255s32.758 12.497 45.255 0l144.283-144.294c37.257 40.294 84.862 71.012 138.635 88.006v46.845c0 53.019 42.981 96 96 96zM192 514.491v-258.421h-64c-35.346 0-64-28.654-64-64s28.654-64 64-64h256v-64c0-35.346 28.654-64 64-64s64 28.654 64 64v64l210.688 0.058-502.388 502.31c-18.169-34.99-28.3-74.508-28.3-115.947zM446.801 896c-17.673 0-32-14.327-32-32v-93.739l-44.714-14.131c-44.303-14.001-82.856-39.338-112.653-72.268l545.476-545.441c17.514 11.419 29.091 31.183 29.091 53.65 0 35.346-28.654 64-64 64h-64v258.421c0 111.812-73.759 209.577-180.004 242.237l-45.195 13.893v93.379c0 17.673-14.327 32-32 32z" />
<glyph unicode="&#xe915;" glyph-name="link" d="M320.471 672c17.673 0 32-14.327 32-32s-14.327-32-32-32v0h-115.671c-76.966 0-140.8-70.927-140.8-160s63.834-160 140.8-160v0h230.4c76.966 0 140.8 70.927 140.8 160 0 17.673 14.327 32 32 32s32-14.327 32-32c0-123.004-90.896-224-204.8-224v0h-230.4c-113.904 0-204.8 100.996-204.8 224s90.896 224 204.8 224v0zM818.682 672c113.904 0 204.8-100.996 204.8-224s-90.896-224-204.8-224v0h-116.916c-17.673 0-32 14.327-32 32s14.327 32 32 32v0h116.916c76.966 0 140.8 70.927 140.8 160s-63.834 160-140.8 160v0h-230.4c-76.966 0-140.8-70.927-140.8-160 0-17.673-14.327-32-32-32s-32 14.327-32 32c0 123.004 90.896 224 204.8 224v0z" />
<glyph unicode="&#xe916;" glyph-name="android-star" d="M501.957 71.632l-229.85-126.542c-36.197-18.887-79.633-5.666-97.731 32.108-7.239 15.11-10.859 32.108-7.239 47.217l43.436 266.305c1.81 5.666-1.81 13.221-5.43 16.998l-182.794 188.869c-28.957 28.33-28.957 77.436-1.81 107.655 10.859 11.332 25.338 18.887 41.626 22.664l256.997 39.662c5.43 0 10.859 5.666 14.479 9.443l114.020 241.752c18.098 37.774 61.535 52.883 97.731 33.996 14.479-7.555 25.338-18.887 32.577-33.996l112.21-243.641c1.81-5.666 7.239-9.443 14.479-9.443l256.997-39.662c39.816-5.666 66.964-43.44 61.535-84.991-1.81-16.998-9.049-32.108-21.718-43.44l-184.604-188.869c-3.62-3.777-5.43-11.332-5.43-16.998l43.436-266.305c7.239-41.551-19.908-79.325-59.725-86.88-16.289-1.889-32.577 0-45.246 7.555l-229.85 126.542c-5.43 1.889-12.669 1.889-18.098 0z" />
<glyph unicode="&#xe917;" glyph-name="android-star-outline" d="M555.814 129.831l234.623-129.939-44.338 273.455c-5.542 31.030 5.542 64 25.864 85.333l188.437 193.939-262.334 40.727c-29.559 3.879-55.423 25.212-70.202 52.364l-114.54 250.182-116.388-248.242c-12.932-29.091-38.796-48.485-70.202-52.364l-262.334-42.667 188.437-193.939c22.169-21.333 31.406-54.303 25.864-85.333l-42.491-273.455 234.623 129.939c25.864 15.515 59.118 15.515 84.981 0zM501.957 71.632l-229.85-126.542c-36.197-18.887-79.633-5.666-97.731 32.108-7.239 15.11-10.859 32.108-7.239 47.217l43.436 266.305c1.81 5.666-1.81 13.221-5.43 16.998l-182.794 188.869c-28.957 28.33-28.957 77.436-1.81 107.655 10.859 11.332 25.338 18.887 41.626 22.664l256.997 39.662c5.43 0 10.859 5.666 14.479 9.443l114.020 241.752c18.098 37.774 61.535 52.883 97.731 33.996 14.479-7.555 25.338-18.887 32.577-33.996l112.21-243.641c1.81-5.666 7.239-9.443 14.479-9.443l256.997-39.662c39.816-5.666 66.964-43.44 61.535-84.991-1.81-16.998-9.049-32.108-21.718-43.44l-184.604-188.869c-3.62-3.777-5.43-11.332-5.43-16.998l43.436-266.305c7.239-41.551-19.908-79.325-59.725-86.88-16.289-1.889-32.577 0-45.246 7.555l-229.85 126.542c-5.43 1.889-12.669 1.889-18.098 0z" />
<glyph unicode="&#xe918;" glyph-name="arrow-right-b" d="M864.131 363.175l-458.833-378.843c-40.884-33.757-101.393-27.979-135.15 12.906-14.203 17.202-21.972 38.814-21.972 61.122v771.674c0 53.019 42.981 96 96 96 22.897 0 45.041-8.184 62.434-23.076l458.833-392.831c40.275-34.482 44.972-95.084 10.49-135.359-3.593-4.197-7.542-8.076-11.802-11.593z" />
<glyph unicode="&#xe919;" glyph-name="filter-out" d="M931.556 846.301l-272.588-332.839v-490.636c0-73.158-47-86.826-81.098-86.826-17.659 0-37.848 7.771-49.109 20.475l-63.613 71.547 46.852 70.573c35.658-58.769 60.099-88.154 73.324-88.154 0 12.384 0 41.068 0 47.484 0 205.357 0 478.142 0 478.142l273.774 324.392c17.897 17.743 23.018 26.614 15.365 26.614-95.319 0-628.85 0-724.151 0-11.481 0-5.993-13.011 13.094-36.503l275.632-314.622v-398.299l-73.010 55.244v324.607l-273.863 328.521c-11.561 12.298-19.022 29.187-19.022 48.050 0 36.42 27.5 65.928 61.441 65.928h754.834c33.942 0 61.44-29.507 61.44-65.928 0-18.863-7.461-35.752-19.301-47.771z" />
<glyph unicode="&#xe91a;" glyph-name="load-c" d="M495.251 867.957c0 21.725 17.612 39.337 39.337 39.337s39.337-17.612 39.337-39.337v-177.018c0-21.725-17.612-39.337-39.337-39.337s-39.337 17.612-39.337 39.337v177.018zM819.699 766.154c15.362 15.362 40.269 15.362 55.631 0s15.362-40.269 0-55.631l-125.171-125.171c-15.362-15.362-40.269-15.362-55.631 0s-15.362 40.269 0 55.631l125.171 125.171zM977.133 464.749c21.725 0 39.337-17.612 39.337-39.337s-17.612-39.337-39.337-39.337h-177.018c-21.725 0-39.337 17.612-39.337 39.337s17.612 39.337 39.337 39.337h177.018zM875.331 140.301c15.362-15.362 15.362-40.269 0-55.631s-40.269-15.362-55.631 0l-125.171 125.171c-15.362 15.362-15.362 40.269 0 55.631s40.269 15.362 55.631 0l125.171-125.171zM573.926-17.133c0-21.725-17.612-39.337-39.337-39.337s-39.337 17.612-39.337 39.337v177.018c0 21.725 17.612 39.337 39.337 39.337s39.337-17.612 39.337-39.337v-177.018zM249.477 84.669c-15.362-15.362-40.269-15.362-55.631 0s-15.362 40.269 0 55.631l125.171 125.171c15.362 15.362 40.269 15.362 55.631 0s15.362-40.269 0-55.631l-125.171-125.171zM92.043 386.074c-21.725 0-39.337 17.612-39.337 39.337s17.612 39.337 39.337 39.337h177.018c21.725 0 39.337-17.612 39.337-39.337s-17.612-39.337-39.337-39.337h-177.018zM193.846 710.523c-15.362 15.362-15.362 40.269 0 55.631s40.269 15.362 55.631 0l125.171-125.171c15.362-15.362 15.362-40.269 0-55.631s-40.269-15.362-55.631 0l-125.171 125.171z" />
<glyph unicode="&#xe91b;" glyph-name="ios-minus-outline" d="M512 960c282.77 0 512-229.23 512-512s-229.23-512-512-512c-282.77 0-512 229.23-512 512s229.23 512 512 512zM512 896c-247.424 0-448-200.576-448-448s200.576-448 448-448c247.424 0 448 200.576 448 448s-200.576 448-448 448zM736.902 478.629c17.673 0 32-14.327 32-32s-14.327-32-32-32h-448c-17.673 0-32 14.327-32 32s14.327 32 32 32h448z" />
<glyph unicode="&#xe91c;" glyph-name="android-remove-circle" d="M512 960c282.77 0 512-229.23 512-512s-229.23-512-512-512c-282.77 0-512 229.23-512 512s229.23 512 512 512zM736.902 478.629h-448c-17.673 0-32-14.327-32-32s14.327-32 32-32v0h448c17.673 0 32 14.327 32 32s-14.327 32-32 32v0z" />
<glyph unicode="&#xe91d;" glyph-name="rank-down" d="M424.554-45.212c28.182-22.571 67.132-24.753 97.405-6.478l8.802 6.096 284.974 224.891c18.498 14.598 21.66 41.427 7.062 59.925-12.976 16.443-35.616 20.768-53.479 11.273l-6.446-4.212-241.070-190.304c0.494 2.598 0.753 5.279 0.753 8.020v853.333c0 23.564-19.103 42.667-42.667 42.667s-42.667-19.103-42.667-42.667v-853.333c0-3.974 0.543-7.82 1.559-11.47l-241.441 193.562c-18.392 14.731-45.244 11.762-59.974-6.63-13.094-16.349-12.203-39.381 1.074-54.644l5.556-5.331 280.558-224.7z" />
<glyph unicode="&#xe91e;" glyph-name="jump" d="M606.304 866.738c-18.851 0-34.133 15.282-34.133 34.133s15.282 34.133 34.133 34.133h307.2c47.128 0 85.333-38.205 85.333-85.333v-785.067c0-47.128-38.205-85.333-85.333-85.333h-307.2c-18.851 0-34.133 15.282-34.133 34.133s15.282 34.133 34.133 34.133h307.2c9.426 0 17.067 7.641 17.067 17.067v785.067c0 9.426-7.641 17.067-17.067 17.067h-307.2zM697.572 414.56c-2.060-0.388-4.186-0.591-6.359-0.591h-614.4c-18.851 0-34.133 15.282-34.133 34.133s15.282 34.133 34.133 34.133h614.4c3.107 0 6.118-0.415 8.979-1.193l-154.653 193.098c-11.784 14.714-9.41 36.195 5.304 47.98s36.195 9.41 47.98-5.304l179.76-224.447c19.862-24.8 19.989-60.024 0.306-84.966l-179.912-227.979c-11.678-14.798-33.142-17.328-47.94-5.649s-17.328 33.142-5.649 47.94l152.186 192.845z" />
<glyph unicode="&#xe91f;" glyph-name="forbid-strong" d="M512.003-64c-282.776 0-512.003 229.236-512.003 512.009s229.226 511.991 512.003 511.991c282.764 0 511.997-229.218 511.997-511.991s-229.234-512.009-511.997-512.009zM128.005 448.009c0-212.065 171.916-384.003 383.998-384.003 84.717 0 162.316 28.295 225.817 74.766l-535.057 535.062c-46.469-63.507-74.758-141.107-74.758-225.825zM512.003 832.012c-81.094 0-156.069-25.441-218.053-68.346l533.699-533.706c42.906 61.985 68.352 136.961 68.352 218.049 0 212.085-171.928 384.003-383.998 384.003z" />
<glyph unicode="&#xe920;" glyph-name="forbid" d="M236.786 801.524l600.523-661.548c76.047 80.288 122.691 188.709 122.691 308.024 0 247.424-200.576 448-448 448-103.754 0-199.271-35.27-275.214-94.476v0zM790.11 96.752l-600.875 661.936c-77.55-80.545-125.235-190.048-125.235-310.688 0-247.424 200.576-448 448-448 105.078 0 201.706 36.176 278.11 96.752v0zM512-64c-282.77 0-512 229.23-512 512s229.23 512 512 512c282.77 0 512-229.23 512-512s-229.23-512-512-512z" />
<glyph unicode="&#xe921;" glyph-name="play" d="M512-3.765c249.503 0 451.765 202.262 451.765 451.765s-202.262 451.765-451.765 451.765c-249.503 0-451.765-202.262-451.765-451.765s202.262-451.765 451.765-451.765zM512-64c-282.77 0-512 229.23-512 512s229.23 512 512 512c282.77 0 512-229.23 512-512s-229.23-512-512-512zM483.569 628.145l191.255-127.856c29.385-19.644 37.281-59.39 17.637-88.775-4.745-7.097-10.861-13.174-17.99-17.871l-191.255-126.034c-29.514-19.449-69.207-11.29-88.656 18.224-6.889 10.453-10.56 22.697-10.56 35.216v253.889c0 35.346 28.654 64 64 64 12.663 0 25.041-3.756 35.569-10.794z" />
<glyph unicode="&#xe922;" glyph-name="rank" d="M634.998 960c23.562 0 42.664-19.101 42.664-42.664l-0.079-843.096 233.1 252.358c14.188 13.314 36.483 12.606 49.797-1.582 12.772-13.61 14.445-33.831 4.972-49.174l-4.743-6.244-291.777-316.319c-7.795-10.211-20.094-16.8-33.933-16.8-23.562 0-42.664 19.101-42.664 42.664v938.193c0 23.562 19.101 42.664 42.664 42.664zM378.998 960c23.562 0 42.664-19.101 42.664-42.664v-938.193c0-23.562-19.101-42.664-42.664-42.664s-42.664 19.101-42.664 42.664l-0.036 843.726-232.821-252.237c-14.188-13.314-36.483-12.606-49.797 1.582-12.772 13.61-14.445 33.831-4.972 49.174l4.743 6.244 297.652 322.346c5.68 5.33 12.658 8.413 19.84 9.283 2.633 0.48 5.313 0.739 8.055 0.739z" />
<glyph unicode="&#xe923;" glyph-name="arrow-swap-circle" d="M512 960c282.77 0 512-229.23 512-512s-229.23-512-512-512c-282.77 0-512 229.23-512 512s229.23 512 512 512zM512 896c-247.424 0-448-200.576-448-448s200.576-448 448-448c247.424 0 448 200.576 448 448s-200.576 448-448 448zM770.684 403.699c17.673 0 32-14.327 32-32s-14.327-32-32-32l-436.48-0.022 81.19-84.075c12.277-12.713 11.923-32.971-0.79-45.248s-32.971-11.923-45.248 0.79l-133.374 138.113c-5.833 5.868-9.298 13.751-9.298 22.442 0 17.673 14.327 32 32 32h512zM660.011 680.403l133.374-138.113c5.833-5.868 9.298-13.751 9.298-22.442 0-17.673-14.327-32-32-32h-512c-17.673 0-32 14.327-32 32s14.327 32 32 32l436.48 0.022-81.19 84.075c-12.277 12.713-11.923 32.971 0.79 45.248s32.971 11.923 45.248-0.79z" />
<glyph unicode="&#xe924;" glyph-name="close" d="M439.592 448l-229.998 228.194c-19.995 19.995-19.995 52.413 0 72.408s52.413 19.995 72.408 0l229.998-228.194 230.532 228.194c19.995 19.995 52.413 19.995 72.408 0s19.995-52.413 0-72.408l-230.532-228.194 230.532-228.371c19.995-19.995 19.995-52.413 0-72.408s-52.413-19.995-72.408 0l-230.532 228.371-229.998-228.371c-19.995-19.995-52.413-19.995-72.408 0s-19.995 52.413 0 72.408l229.998 228.371z" />
<glyph unicode="&#xe925;" glyph-name="arrow-expand" d="M631.363 380.070l284.664-284.664 107.876 107.876 0.097-267.569-267.569 0.097 107.876 107.876-284.664 284.664 51.72 51.72zM392.637 380.070l51.72-51.72-284.664-284.664 107.876-107.876-267.569-0.097 0.097 267.569 107.876-107.876 284.664 284.664zM0 960.151l267.569-0.097-107.876-107.876 284.664-284.664-51.72-51.72-284.664 284.664-107.876-107.876-0.097 267.569zM1024 960.151l-0.097-267.569-107.876 107.876-284.664-284.664-51.72 51.72 284.664 284.664-107.876 107.876 267.569 0.097z" />
<glyph unicode="&#xe926;" glyph-name="arrow-shrink" d="M589.272 370.319l249.731-0.090-100.685-100.685 265.687-265.687-48.272-48.272-265.687 265.687-100.685-100.685-0.090 249.731zM414.733 370.319l-0.090-249.731-100.685 100.685-265.687-265.687-48.272 48.272 265.687 265.687-100.685 100.685 249.731 0.090zM48.272 960l265.687-265.687 100.685 100.685 0.090-249.731-249.731 0.090 100.685 100.685-265.687 265.687 48.272 48.272zM955.733 960l48.272-48.272-265.687-265.687 100.685-100.685-249.731-0.090 0.090 249.731 100.685-100.685 265.687 265.687z" />
<glyph unicode="&#xe927;" glyph-name="expand" d="M1024 318.633v-382.633h-384.102v128h256.102v254.633h128zM128 317.883v-253.883h256.32v-128h-384.32v381.883h128zM1024 960v-385.914h-128v257.914h-256.117v128h384.117zM382.938 960v-128h-254.938v-257.414h-128v385.414h382.938z" />
<glyph unicode="&#xe928;" glyph-name="checkmark" d="M906.516 689.317c19.896-19.96 19.801-52.165-0.099-72.127l-454.766-456.199c-1.364-1.792-2.862-3.514-4.495-5.152-19.82-19.883-52.008-19.881-71.925-0.027l-257.857 258.665c-19.919 19.981-19.972 52.258-0.12 72.174 19.82 19.883 52.008 19.881 71.925 0.027 0.038-0.038 0.076-0.076 0.114-0.114l221.893-222.526 423.655 424.956c19.819 19.881 51.908 20.025 71.674 0.322z" />
<glyph unicode="&#xe929;" glyph-name="ios-calendar-outline" d="M704 864h64v-192h-64v192zM256 864h64v-192h-64v192zM1024 95.904c0-35.293-28.456-63.904-64.056-63.904v0h-895.888c-35.377 0-64.056 28.639-64.056 63.904v0 640.192c0 35.293 28.596 63.904 63.743 63.904v0h124.538v-64h-124.281v-192l895.885 3.167-0.012 22.234c-0.002 4.443-0.005 8.796-0.008 13.061l-0.049 67.173c-0.003 3.199-0.006 6.309-0.009 9.33l-0.057 44.782c-0.003 1.955-0.007 3.821-0.010 5.598l-0.053 19.992c-0.004 0.889-0.007 1.688-0.011 2.399l-0.047 4.265h-125.763v64h125.763c35.551 0 64.371-28.639 64.371-63.904v0zM959.912 484.992l-895.912-4.992 0.056-384 895.944-0.006c-0.001 8.708-0.002 17.326-0.003 25.856l-0.058 287.616c-0.002 6.22-0.004 12.351-0.006 18.393l-0.020 57.133zM640 800v-64h-256v64h256z" />
<glyph unicode="&#xe92a;" glyph-name="trash-a" d="M992.231 800c15.596 0 28.567-11.728 31.257-26.384l0.512-5.616c0-17.673-14.476-32-31.769-32h-96.295l0.064-704.096c0-35.293-29.223-63.904-64.277-63.904h-640.869c-35.499 0-64.119 28.639-63.925 63.904l3.886 704.096h-99.047c-17.546 0-31.769 14.844-31.769 32 0 17.673 14.476 32 31.769 32h960.462zM832 736h-637.186l-3.883-704h640.792l0.018 34.838c0.001 3.154 0.003 6.499 0.004 10.024l0.060 149.804c0.002 6.128 0.005 12.337 0.007 18.615l0.054 138.719c0.003 6.769 0.005 13.538 0.008 20.298l0.059 155.172c0.002 5.958 0.004 11.826 0.007 17.594l0.060 158.937zM608 608c17.673 0 32-14.906 32-32.219v-383.562c0-15.817-11.728-28.972-26.384-31.7l-5.616-0.519c-17.673 0-32 14.906-32 32.219v383.562c0 15.817 11.728 28.972 26.384 31.7l5.616 0.519zM416 608c17.673 0 32-14.906 32-32.219v-383.562c0-15.817-11.728-28.972-26.384-31.7l-5.616-0.519c-17.673 0-32 14.906-32 32.219v383.562c0 15.817 11.728 28.972 26.384 31.7l5.616 0.519zM735.972 928c15.723 0 28.8-11.728 31.512-26.384l0.516-5.616c0-17.673-14.771-32-32.028-32h-447.944c-17.689 0-32.028 14.844-32.028 32 0 17.673 14.771 32 32.028 32h447.944z" />
<glyph unicode="&#xe92b;" glyph-name="ios-gear-outline" d="M361.263 820.276v75.724c0 35.346 28.654 64 64 64h166.986c35.346 0 64-28.654 64-64v-76.128c41.068-15.211 78.977-36.565 112.517-62.896l71.898 40.027c30.197 16.811 68.286 6.611 86.041-23.041l81.706-136.462c18.158-30.326 8.293-69.629-22.033-87.787-0.577-0.345-1.159-0.682-1.746-1.009l-68.51-38.141c3.335-20.382 5.067-41.278 5.067-62.564s-1.732-42.182-5.067-62.564l68.51-38.141c30.883-17.193 41.981-56.166 24.788-87.049-0.327-0.587-0.663-1.17-1.009-1.746l-81.706-136.462c-17.754-29.652-55.844-39.853-86.041-23.041l-71.898 40.027c-33.54-26.331-71.449-47.685-112.517-62.896v-76.128c0-35.346-28.654-64-64-64h-166.986c-35.346 0-64 28.654-64 64v75.724c-41.303 15.168-79.431 36.543-113.157 62.943l-71.258-39.67c-30.197-16.811-68.286-6.611-86.041 23.041l-81.706 136.462c-18.158 30.326-8.293 69.629 22.033 87.787 0.577 0.345 1.159 0.682 1.746 1.009l67.507 37.582c-3.395 20.559-5.159 41.642-5.159 63.122s1.764 42.564 5.159 63.122l-67.507 37.582c-30.883 17.193-41.981 56.166-24.788 87.049 0.327 0.587 0.663 1.17 1.009 1.746l81.706 136.462c17.754 29.652 55.844 39.853 86.041 23.041l71.258-39.67c33.726 26.4 71.854 47.776 113.157 62.943zM383.325 760.199c-34.702-12.743-67.015-30.753-95.77-53.262l-33.457-26.19-108.381 60.338-81.706-136.462 106.86-59.491-7.34-44.439c-2.857-17.299-4.304-34.895-4.304-52.693s1.447-35.394 4.304-52.693l7.34-44.439-106.86-59.491 81.706-136.462 108.381 60.338 33.457-26.19c28.754-22.508 61.068-40.519 95.77-53.262l41.938-15.401v-120.401h166.986v120.672l41.771 15.471c34.506 12.781 66.634 30.774 95.226 53.221l33.471 26.276 109.077-60.725 81.706 136.462-107.802 60.015 7.263 44.38c2.806 17.149 4.227 34.59 4.227 52.228s-1.421 35.079-4.227 52.228l-7.263 44.38 107.802 60.015-81.706 136.462-109.077-60.725-33.471 26.276c-28.592 22.446-60.72 40.44-95.226 53.221l-41.771 15.471v120.672h-166.986v-120.401l-41.938-15.401zM508.757 271.629c-97.202 0-176 78.798-176 176s78.798 176 176 176c97.202 0 176-78.798 176-176s-78.798-176-176-176zM508.757 335.629c61.856 0 112 50.144 112 112s-50.144 112-112 112c-61.856 0-112-50.144-112-112s50.144-112 112-112z" />
<glyph unicode="&#xe92c;" glyph-name="rank-up" d="M424.554 941.271c28.182 22.571 67.132 24.753 97.405 6.478l8.802-6.096 284.974-224.891c18.498-14.598 21.66-41.427 7.062-59.925-12.976-16.443-35.616-20.768-53.479-11.273l-6.446 4.212-241.070 190.304c0.494-2.598 0.753-5.279 0.753-8.020v-853.333c0-23.564-19.103-42.667-42.667-42.667s-42.667 19.103-42.667 42.667v853.333c0 3.974 0.543 7.82 1.559 11.47l-241.441-193.562c-18.392-14.731-45.244-11.762-59.974 6.63-13.094 16.349-12.203 39.381 1.074 54.644l5.556 5.331 280.558 224.7z" />
<glyph unicode="&#xe92d;" glyph-name="ios-more" d="M96 544c53.019 0 96-42.981 96-96s-42.981-96-96-96c-53.019 0-96 42.981-96 96s42.981 96 96 96zM928 544c53.019 0 96-42.981 96-96s-42.981-96-96-96c-53.019 0-96 42.981-96 96s42.981 96 96 96zM512 544c53.019 0 96-42.981 96-96s-42.981-96-96-96c-53.019 0-96 42.981-96 96s42.981 96 96 96z" />
<glyph unicode="&#xe92e;" glyph-name="chevron-down" d="M511.031 313.878l403.356 403.25c25.066 25.060 65.514 25.252 90.733 0.040 25.044-25.038 25.317-65.359-0.040-90.709l-447.464-447.347c-11.187-11.184-25.438-17.415-40.032-18.645-18.731-2.276-38.259 3.771-52.81 18.317l-446.029 445.912c-24.963 24.957-25.072 65.311 0.146 90.523 25.044 25.038 65.294 25.392 90.547 0.146l401.593-401.487z" />
<glyph unicode="&#xe92f;" glyph-name="eject" d="M934.724 960c23.564 0 42.667-19.103 42.667-42.667v-938.667c0-23.564-19.103-42.667-42.667-42.667s-42.667 19.103-42.667 42.667v938.667c0 23.564 19.103 42.667 42.667 42.667zM800.094 905.103c4.377-6.857 6.703-14.822 6.703-22.957v-866.599c0-23.564-19.103-42.667-42.667-42.667-8.135 0-16.1 2.326-22.957 6.703l-678.791 433.299c-19.862 12.679-25.686 39.059-13.007 58.921 3.338 5.23 7.777 9.668 13.007 13.007l678.791 433.299c19.862 12.679 46.242 6.856 58.921-13.007z" />
<glyph unicode="&#xe930;" glyph-name="ios-search-strong" d="M436.565 960c241.108 0 436.565-195.455 436.565-436.561 0-109.327-40.187-209.267-106.595-285.856l247.452-247.461c11.325-11.325 12.663-28.826 4.154-41.24l-3.23-3.794-3.813-3.256c-12.461-8.593-29.783-7.237-41.212 4.191l-247.464 247.449c-76.589-66.407-176.531-106.594-285.859-106.594-241.108 0-436.565 195.455-436.565 436.561s195.457 436.561 436.565 436.561zM436.565 897.634c-206.664 0-374.199-167.533-374.199-374.195s167.535-374.195 374.199-374.195c206.664 0 374.199 167.533 374.199 374.195s-167.535 374.195-374.199 374.195z" />
<glyph unicode="&#xe931;" glyph-name="zoom-out" d="M459.594 960c253.827 0 459.594-205.737 459.594-459.527 0-115.877-42.897-221.737-113.679-302.569l208.498-208.439c11.251-11.249 12.667-28.544 3.972-41.118l-3.004-3.515-3.132-2.65c-12.447-8.713-29.514-7.692-41.167 3.959l-208.51 208.432c-80.839-70.75-186.698-113.627-302.573-113.627-253.827 0-459.594 205.737-459.594 459.527s205.767 459.527 459.594 459.527zM459.594 898.73c-219.983 0-398.315-178.306-398.315-398.257s178.332-398.257 398.315-398.257c219.983 0 398.315 178.306 398.315 398.257s-178.332 398.257-398.315 398.257zM643.437 531.108c16.919 0 30.635-13.716 30.635-30.635s-13.716-30.635-30.635-30.635h-367.684c-16.919 0-30.635 13.716-30.635 30.635s13.716 30.635 30.635 30.635h367.684z" />
<glyph unicode="&#xe932;" glyph-name="android-alert" d="M512 960c282.77 0 512-229.23 512-512s-229.23-512-512-512c-282.77 0-512 229.23-512 512s229.23 512 512 512zM511.127 238.908c-40.396 0-73.143-32.747-73.143-73.143s32.747-73.143 73.143-73.143c40.396 0 73.143 32.747 73.143 73.143s-32.747 73.143-73.143 73.143zM512 793.574c-2.086 0-4.171-0.086-6.25-0.258-41.703-3.452-72.712-40.057-69.26-81.76v0l32.357-390.916c1.827-22.078 20.279-39.066 42.433-39.066 22.17 0 40.651 16.967 42.542 39.056v0l33.46 390.945c0.183 2.143 0.275 4.292 0.275 6.443 0 41.728-33.828 75.556-75.556 75.556z" />
<glyph unicode="&#xe933;" glyph-name="edit" d="M750.461 884.238l5.418-0.823c38.971-9.383 77.849-32.96 117.017-70.035 38.671-36.605 66.288-75.645 82.472-117.151 4.625-11.861 1.779-25.336-7.248-34.314v0l-581.594-578.448c-3.952-3.931-8.863-6.761-14.246-8.211v0l-239.125-64.391c-23.769-6.4-45.562 15.311-39.251 39.104v0l62.297 234.852c1.461 5.506 4.365 10.523 8.412 14.531v0l581.256 575.688c7.877 7.801 19.231 10.97 30.009 8.375zM564.642 625.361l-368.866-365.393-45.824-172.864 177.408 47.744 366.69 364.753-129.408 125.76zM757.056 815.936l-146.974-145.519 129.344-125.696 147.742 146.927-2.646 5.306c-10.86 19.843-25.508 39.345-44.038 58.497v0l-11.584 11.45c-23.73 22.462-46.235 38.127-67.353 47.289v0l-4.492 1.746z" />
<glyph unicode="&#xe934;" glyph-name="alert" d="M511.127 238.908c40.396 0 73.143-32.747 73.143-73.143s-32.747-73.143-73.143-73.143c-40.396 0-73.143 32.747-73.143 73.143s32.747 73.143 73.143 73.143zM512 793.574c41.728 0 75.556-33.828 75.556-75.556 0-2.151-0.092-4.3-0.275-6.443l-33.46-390.945c-1.891-22.089-20.372-39.056-42.542-39.056-22.153 0-40.605 16.988-42.433 39.066l-32.357 390.916c-3.452 41.703 27.557 78.308 69.26 81.76 2.079 0.172 4.164 0.258 6.25 0.258z" />
<glyph unicode="&#xe935;" glyph-name="bell" horiz-adv-x="896" d="M542.801 817.903c130.446-40.099 225.199-160.774 225.199-303.412v-194.421c70.692 0 128-57.308 128-128s-57.308-128-128-128h-192c0-70.692-57.308-128-128-128s-128 57.308-128 128h-192c-70.692 0-128 57.308-128 128s57.308 128 128 128v194.421c0 141.762 93.593 261.83 222.801 302.664v46.845c0 53.019 42.981 96 96 96s96-42.981 96-96v-46.097zM478.801 864c0 17.673-14.327 32-32 32s-32-14.327-32-32v-93.739l-44.714-14.131c-105.278-33.271-178.087-130.551-178.087-241.639v-258.421h-64c-35.346 0-64-28.654-64-64s28.654-64 64-64h256v-64c0-35.346 28.654-64 64-64s64 28.654 64 64v64h256c35.346 0 64 28.654 64 64s-28.654 64-64 64h-64v258.421c0 111.812-73.759 209.577-180.004 242.237l-45.195 13.893v93.379z" />
<glyph unicode="&#xe936;" glyph-name="ios-plus-empty" d="M511.999 960c18.852 0 34.135-15.283 34.135-34.135l-0.022-443.689 443.753-0.041c18.852 0 34.135-15.283 34.135-34.135s-15.283-34.135-34.135-34.135l-443.753 0.023 0.022-443.753c0-18.852-15.283-34.135-34.135-34.135s-34.135 15.283-34.135 34.135l-0.040 443.753-443.689-0.023c-18.852 0-34.135 15.283-34.135 34.135s15.283 34.135 34.135 34.135l443.689 0.041 0.040 443.689c0 18.852 15.283 34.135 34.135 34.135z" />
<glyph unicode="&#xe937;" glyph-name="ios-plus" d="M512 960c282.77 0 512-229.23 512-512s-229.23-512-512-512c-282.77 0-512 229.23-512 512s229.23 512 512 512zM512 767.445c-17.673 0-32-14.327-32-32v0l-0.061-255.040-255.552-0.015c-17.673 0-32-14.327-32-32s14.327-32 32-32v0l255.552 0.015 0.061-256.96c0-17.673 14.327-32 32-32s32 14.327 32 32v0l-0.061 256.96 256.448-0.015c17.673 0 32 14.327 32 32s-14.327 32-32 32v0l-256.448 0.015 0.061 255.040c0 17.673-14.327 32-32 32z" />
<glyph unicode="&#xe938;" glyph-name="ios-plus-outline" d="M512-64c-282.77 0-512 229.23-512 512s229.23 512 512 512c282.77 0 512-229.23 512-512s-229.23-512-512-512zM512 0c247.424 0 448 200.576 448 448s-200.576 448-448 448c-247.424 0-448-200.576-448-448s200.576-448 448-448zM480 480.391v255.055c0 17.673 14.327 32 32 32s32-14.327 32-32v-255.055h256.387c17.673 0 32-14.327 32-32s-14.327-32-32-32h-256.387v-256.945c0-17.673-14.327-32-32-32s-32 14.327-32 32v256.945h-255.613c-17.673 0-32 14.327-32 32s14.327 32 32 32h255.613z" />
<glyph unicode="&#xe939;" glyph-name="annex" horiz-adv-x="960" d="M578.94 898.959c81.066 81.066 216.091 77.477 301.586-8.018 79.957-79.957 88.276-203.234 22.707-285.181l0.304-0.276-3.468-3.578c-3.63-4.31-7.472-8.498-11.525-12.552v0l-343.755-343.114-0.277 0.287-47.235-47.304c-44.72-44.72-117.64-45.198-167.522-2.795l-8.091 7.464c-49.783 49.783-51.874 128.408-4.669 175.613 37.945 37.945 73.631 73.631 107.058 107.058l143.105 143.105c41.92 41.92 78.057 78.058 108.413 108.413 16.713 12.332 31.271 12.703 43.673 1.113s13.261-25.411 2.578-41.464c-80.002-80.002-200.595-202.451-360.598-362.455-24.043-24.043-22.978-64.089 2.378-89.446s65.402-26.421 89.446-2.378v0l400.785 400.645c47.888 58.524 42.259 147.4-15.245 204.904-61.068 61.068-157.514 63.632-215.419 5.727-47.746-47.746-92.237-92.237-133.473-133.473l-163.585-163.585c-25.19-25.19-48.295-48.295-69.313-69.313l0.67-0.588-12.633-12.633c-2.339-2.339-4.796-4.796-7.369-7.369l-47.373-47.373c-92.647-92.647-88.545-246.961 9.164-344.67s244.611-102.019 337.258-9.371v0l370.609 370.609c11.581 11.581 33.506 9.197 45.719-3.017s12.726-31.503 1.145-43.084v0l-192.046-187.54-181.198-181.199c-115.809-115.809-301.29-110.473-423.426 11.662s-127.264 315.028-11.454 430.837c13.457 13.457 25.433 25.433 35.928 35.928l-0.784 0.475 36.859 36.86c39.116 39.116 85.003 85.003 137.659 137.659l54.913 54.913c25.409 25.409 52.155 52.155 80.238 80.238l43.128 43.128c14.71 14.71 29.755 29.755 45.134 45.134z" />
<glyph unicode="&#xe93a;" glyph-name="page-pre" d="M873.799 854.729l-377.704-378.294c-2.431-1.377-4.717-3.098-6.784-5.168-12.197-12.216-12.602-32.948-0.084-45.485l383.931-384.531c12.179-12.198 32.85-12.499 45.414 0.084 12.197 12.216 12.602 32.948 0.084 45.485l-360.851 361.414 360.927 361.49c12.138 12.157 12.53 32.699 0.122 45.126-12.045 12.064-32.58 12.373-45.056-0.122zM457.799 854.729l-377.704-378.294c-2.431-1.377-4.717-3.098-6.784-5.168-12.197-12.216-12.602-32.948-0.084-45.485l383.931-384.531c12.179-12.198 32.85-12.499 45.414 0.084 12.197 12.216 12.602 32.948 0.084 45.485l-360.851 361.414 360.927 361.49c12.138 12.157 12.53 32.699 0.122 45.126-12.045 12.064-32.58 12.373-45.056-0.122z" />
<glyph unicode="&#xe93b;" glyph-name="shrink" d="M1024 318.633v-128h-256.102v-254.633h-128v382.633h384.102zM384.32 317.883v-381.883h-128v253.883h-256.32v128h384.32zM767.883 960v-257.914h256.117v-128h-384.117v385.914h128zM382.938 960v-385.414h-382.938v128h254.938v257.414h128z" />
<glyph unicode="&#xe93c;" glyph-name="arrow-move" d="M512 851.42c20.198 0 36.571-16.374 36.571-36.571v-804.571c0-20.198-16.374-36.571-36.571-36.571s-36.571 16.374-36.571 36.571v804.571c0 20.198 16.374 36.571 36.571 36.571zM800.564 612.203c12.688 13.832 33.256 13.832 45.943 0v0l162.457-177.11c12.688-13.833 12.688-36.255 0-50.087v0l-162.457-177.111c-12.688-13.832-33.256-13.832-45.943 0-6.352 6.908-9.52 15.976-9.52 25.044s3.184 18.118 9.52 25.044v0l106.994 116.645h-311.462c-17.951 0-21.994 15.851-21.994 35.422s4.043 35.422 21.994 35.422v0h311.462l-106.994 116.645c-12.688 13.833-12.688 36.255 0 50.087zM217.916 612.203c12.688-13.832 12.688-36.255 0-50.087l-106.994-116.645h311.462c17.951 0 21.994-15.851 21.994-35.422s-4.043-35.422-21.994-35.422h-311.462l106.994-116.645c6.336-6.925 9.52-15.976 9.52-25.044s-3.169-18.136-9.52-25.044c-12.688-13.832-33.255-13.832-45.943 0l-162.457 177.111c-12.688 13.832-12.688 36.255 0 50.087l162.457 177.11c12.688 13.832 33.255 13.832 45.943 0z" />
<glyph unicode="&#xe93d;" glyph-name="ios-help-outline" d="M512 960c282.77 0 512-229.23 512-512s-229.23-512-512-512c-282.77 0-512 229.23-512 512s229.23 512 512 512zM512 896c-247.424 0-448-200.576-448-448s200.576-448 448-448c247.424 0 448 200.576 448 448s-200.576 448-448 448zM512 245.781c17.983 0 33.851-5.378 46.545-18.286 11.636-11.832 17.983-26.891 17.983-45.176 0-19.361-6.347-34.42-19.041-46.252s-27.504-18.286-45.488-18.286c-17.983 0-32.793 6.454-45.488 18.286-12.694 12.908-17.983 27.966-17.983 46.252s5.289 33.345 17.983 45.176c12.694 12.908 27.504 18.286 45.488 18.286zM523.516 777.875c52.93 0 95.108-15.199 127.362-47.384 30.6-30.397 46.314-72.416 46.314-126.058 0-40.231-10.751-75.099-31.427-104.602-8.27-10.728-30.6-33.973-66.989-68.84-18.195-16.987-30.6-33.079-38.87-49.172-10.751-19.669-15.714-41.125-15.714-65.264v0-20.563h-66.162v20.563c0 29.503 4.962 55.43 14.887 77.781 11.578 26.821 38.87 60.794 83.53 103.708 13.232 14.304 23.157 25.033 28.119 32.185 16.541 22.351 24.811 45.596 24.811 70.628 0 35.761-9.924 63.476-28.119 83.145-19.022 21.457-46.314 31.291-81.049 31.291-41.351 0-71.952-14.304-91.8-43.807-18.195-25.033-27.292-59.006-27.292-102.813v0h-65.335c0 62.582 15.714 112.648 48.795 150.197 33.081 39.337 79.395 59.006 138.941 59.006z" />
<glyph unicode="&#xe93e;" glyph-name="ios-help" d="M512 960c282.77 0 512-229.23 512-512s-229.23-512-512-512c-282.77 0-512 229.23-512 512s229.23 512 512 512zM512 245.781c-17.983 0-32.793-5.378-45.488-18.286-12.694-11.832-17.983-26.891-17.983-45.176s5.289-33.345 17.983-46.252c12.694-11.832 27.504-18.286 45.488-18.286s32.793 6.454 45.488 18.286c12.694 11.832 19.041 26.891 19.041 46.252 0 18.286-6.347 33.345-17.983 45.176-12.694 12.908-28.562 18.286-46.545 18.286zM523.516 777.875c-59.546 0-105.86-19.669-138.941-59.006-33.081-37.549-48.795-87.615-48.795-150.197v0h65.335l0.337 14.239c1.797 37.007 10.782 66.323 26.955 88.574 19.849 29.503 50.449 43.807 91.8 43.807 34.735 0 62.027-9.834 81.049-31.291 18.195-19.669 28.119-47.384 28.119-83.145 0-25.033-8.27-48.278-24.811-70.628-4.962-7.152-14.887-17.881-28.119-32.185-44.66-42.913-71.952-76.887-83.53-103.708-9.924-22.351-14.887-48.278-14.887-77.781v0-20.563h66.162v20.563l0.417 11.85c1.398 19.391 6.337 37.024 15.296 53.414 8.27 16.093 20.676 32.185 38.87 49.172 36.389 34.867 58.719 58.112 66.989 68.84 20.676 29.503 31.427 64.37 31.427 104.602 0 53.642-15.714 95.661-46.314 126.058-32.254 32.185-74.433 47.384-127.362 47.384z" />
<glyph unicode="&#xe93f;" glyph-name="eye" d="M505.771 224.483c-120.832 3.299-217.771 102.286-217.771 223.915 0 123.712 100.288 224 224 224s224-100.288 224-224c0-121.629-96.939-220.616-217.771-223.915 249.11 1.796 441.771 111.099 441.771 223.978 0 113.818-195.88 224-448 224s-448-110.182-448-224c0-112.879 192.661-222.181 441.771-223.978v0zM512 160.461c-282.77 0-512 128.942-512 288s229.23 288 512 288c282.77 0 512-128.942 512-288s-229.23-288-512-288zM640 448c35.346 0 64 28.654 64 64s-28.654 64-64 64c-35.346 0-64-28.654-64-64s28.654-64 64-64z" />
<glyph unicode="&#xe940;" glyph-name="arrow-left-b" horiz-adv-x="704" d="M41.248 361.94l512.326-408.852c43.499-30.166 103.204-19.34 133.355 24.181 11.115 16.044 17.070 35.1 17.070 54.621v832.229c0 52.954-42.906 95.881-95.832 95.881-19.436 0-38.413-5.913-54.413-16.954l-512.326-423.376c-43.568-30.067-54.525-89.777-24.474-133.368 6.563-9.52 14.794-17.774 24.294-24.362z" />
<glyph unicode="&#xe941;" glyph-name="project" d="M512 960c106.039 0 192-85.961 192-192 0-95.12-69.171-174.085-159.955-189.338l-0.045-98.598 160-0.064c84.831 0 154.242-66.018 159.66-149.48l0.34-10.52 0.045-2.662c90.785-15.253 159.955-94.218 159.955-189.338 0-106.039-85.961-192-192-192s-192 85.961-192 192c0 95.142 69.203 174.122 160.019 189.348l-0.019 2.652c0 53.019-42.981 96-96 96v0h-384c-53.019 0-96-42.981-96-96v0l0.045-2.662c90.785-15.253 159.955-94.218 159.955-189.338 0-106.039-85.961-192-192-192s-192 85.961-192 192c0 95.142 69.203 174.122 160.019 189.348l-0.019 2.652c0 88.366 71.634 160 160 160v0l160 0.064 0.019 98.588c-90.816 15.227-160.019 94.206-160.019 189.348 0 106.039 85.961 192 192 192zM841.553 255.649l-3.801-1.071-5.752-0.516c-1.964 0-3.886 0.177-5.752 0.516l5.752 1.422c-70.692 0-128-57.308-128-128s57.308-128 128-128c70.692 0 128 57.308 128 128 0 67.479-52.216 122.763-118.447 127.649zM201.553 255.649l-3.801-1.071-5.752-0.516c-1.964 0-3.886 0.177-5.752 0.516l5.752 1.422c-70.692 0-128-57.308-128-128s57.308-128 128-128c70.692 0 128 57.308 128 128 0 67.479-52.216 122.763-118.447 127.649zM512 896c-70.692 0-128-57.308-128-128s57.308-128 128-128c70.692 0 128 57.308 128 128s-57.308 128-128 128z" />
<glyph unicode="&#xe942;" glyph-name="show-info" d="M512 960c282.77 0 512-229.23 512-512s-229.23-512-512-512c-282.77 0-512 229.23-512 512s229.23 512 512 512zM255.471 512c-17.983 0-32.793-5.378-45.488-18.286-12.694-11.832-17.983-26.891-17.983-45.176s5.289-33.345 17.983-46.252c12.694-11.832 27.504-18.286 45.488-18.286s32.793 6.454 45.488 18.286c12.694 11.832 19.041 26.891 19.041 46.252 0 18.286-6.347 33.345-17.983 45.176-12.694 12.908-28.562 18.286-46.545 18.286zM511.471 512c-17.983 0-32.793-5.378-45.488-18.286-12.694-11.832-17.983-26.891-17.983-45.176s5.289-33.345 17.983-46.252c12.694-11.832 27.504-18.286 45.488-18.286s32.793 6.454 45.488 18.286c12.694 11.832 19.041 26.891 19.041 46.252 0 18.286-6.347 33.345-17.983 45.176-12.694 12.908-28.562 18.286-46.545 18.286zM767.471 512c-17.983 0-32.793-5.378-45.488-18.286-12.694-11.832-17.983-26.891-17.983-45.176s5.289-33.345 17.983-46.252c12.694-11.832 27.504-18.286 45.488-18.286s32.793 6.454 45.488 18.286c12.694 11.832 19.041 26.891 19.041 46.252 0 18.286-6.347 33.345-17.983 45.176-12.694 12.908-28.562 18.286-46.545 18.286z" />
<glyph unicode="&#xe943;" glyph-name="show-info-out" d="M512 960c282.77 0 512-229.23 512-512s-229.23-512-512-512c-282.77 0-512 229.23-512 512s229.23 512 512 512zM512 896c-247.424 0-448-200.576-448-448s200.576-448 448-448c247.424 0 448 200.576 448 448s-200.576 448-448 448zM255.471 512c17.983 0 33.851-5.378 46.545-18.286 11.636-11.832 17.983-26.891 17.983-45.176 0-19.361-6.347-34.42-19.041-46.252s-27.504-18.286-45.488-18.286c-17.983 0-32.793 6.454-45.488 18.286-12.694 12.908-17.983 27.966-17.983 46.252s5.289 33.345 17.983 45.176c12.694 12.908 27.504 18.286 45.488 18.286zM511.471 512c17.983 0 33.851-5.378 46.545-18.286 11.636-11.832 17.983-26.891 17.983-45.176 0-19.361-6.347-34.42-19.041-46.252s-27.504-18.286-45.488-18.286c-17.983 0-32.793 6.454-45.488 18.286-12.694 12.908-17.983 27.966-17.983 46.252s5.289 33.345 17.983 45.176c12.694 12.908 27.504 18.286 45.488 18.286zM767.471 512c17.983 0 33.851-5.378 46.545-18.286 11.636-11.832 17.983-26.891 17.983-45.176 0-19.361-6.347-34.42-19.041-46.252s-27.504-18.286-45.488-18.286c-17.983 0-32.793 6.454-45.488 18.286-12.694 12.908-17.983 27.966-17.983 46.252s5.289 33.345 17.983 45.176c12.694 12.908 27.504 18.286 45.488 18.286z" />
<glyph unicode="&#xe944;" glyph-name="user" horiz-adv-x="960" d="M780.8 658c0 166.758-134.641 302-300.8 302s-300.8-135.242-300.8-302c0-97.806 46.746-186.88 121.652-242.665-178.408-71.978-300.852-247.193-300.852-447.335 0-17.673 14.327-32 32-32s32 14.327 32 32c0 196.393 135.876 365.073 323.962 407.742 30.644 6.952 33.96 49.295 4.771 60.932-89.505 35.684-149.533 122.867-149.533 221.326 0 131.476 106.051 238 236.8 238s236.8-106.524 236.8-238c0-98.459-60.028-185.642-149.533-221.326-29.188-11.637-25.873-53.98 4.771-60.932 188.086-42.669 323.962-211.348 323.962-407.742 0-17.673 14.327-32 32-32s32 14.327 32 32c0 200.142-122.444 375.357-300.852 447.335 74.905 55.785 121.652 144.859 121.652 242.665z" />
<glyph unicode="&#xe945;" glyph-name="page-next" d="M150.201 41.271l377.704 378.294c2.431 1.377 4.717 3.098 6.784 5.168 12.197 12.216 12.602 32.948 0.084 45.485l-383.931 384.531c-12.179 12.198-32.85 12.499-45.414-0.084-12.197-12.216-12.602-32.948-0.084-45.485l360.851-361.414-360.927-361.49c-12.138-12.157-12.53-32.699-0.122-45.126 12.045-12.064 32.58-12.373 45.056 0.122zM566.201 41.271l377.704 378.294c2.431 1.377 4.717 3.098 6.784 5.168 12.197 12.216 12.602 32.948 0.084 45.485l-383.931 384.531c-12.179 12.198-32.85 12.499-45.414-0.084-12.197-12.216-12.602-32.948-0.084-45.485l360.851-361.414-360.927-361.49c-12.138-12.157-12.53-32.699-0.122-45.126 12.045-12.064 32.58-12.373 45.056 0.122z" />
<glyph unicode="&#xe946;" glyph-name="ios-arrow-right" d="M329.373 777.373c-12.497 12.497-12.497 32.758 0 45.255s32.758 12.497 45.255 0l352-352c12.497-12.497 12.497-32.758 0-45.255l-352-352c-12.497-12.497-32.758-12.497-45.255 0s-12.497 32.758 0 45.255l329.373 329.373-329.373 329.373z" />
<glyph unicode="&#xe947;" glyph-name="ios-arrow-left" d="M694.627 118.627c12.497-12.497 12.497-32.758 0-45.255s-32.758-12.497-45.255 0l-352 352c-12.497 12.497-12.497 32.758 0 45.255l352 352c12.497 12.497 32.758 12.497 45.255 0s12.497-32.758 0-45.255l-329.373-329.373 329.373-329.373z" />
<glyph unicode="&#xe948;" glyph-name="stop" d="M512-3.765c249.503 0 451.765 202.262 451.765 451.765s-202.262 451.765-451.765 451.765c-249.503 0-451.765-202.262-451.765-451.765s202.262-451.765 451.765-451.765zM512-64c-282.77 0-512 229.23-512 512s229.23 512 512 512c282.77 0 512-229.23 512-512s-229.23-512-512-512zM384 640h256c35.346 0 64-28.654 64-64v-256c0-35.346-28.654-64-64-64h-256c-35.346 0-64 28.654-64 64v256c0 35.346 28.654 64 64 64z" />
<glyph unicode="&#xe949;" glyph-name="pause" d="M512 960c282.77 0 512-229.23 512-512s-229.23-512-512-512c-282.77 0-512 229.23-512 512s229.23 512 512 512zM512 899.765c-249.503 0-451.765-202.262-451.765-451.765s202.262-451.765 451.765-451.765c249.503 0 451.765 202.262 451.765 451.765s-202.262 451.765-451.765 451.765zM632.611 598.576c16.634-0.006 30.112-13.496 30.106-30.129l-0.117-300.719c-0.006-16.634-13.496-30.112-30.129-30.106s-30.112 13.496-30.106 30.129l0.117 300.719c0.006 16.634 13.496 30.112 30.129 30.106zM391.529 598.588c16.634 0 30.118-13.484 30.118-30.118v-298.602c0-16.634-13.484-30.118-30.118-30.118s-30.118 13.484-30.118 30.118v298.602c0 16.634 13.484 30.118 30.118 30.118z" />
<glyph unicode="&#xe94a;" glyph-name="arrow-up-b" d="M425.94 758.752l-408.852-512.326c-30.166-43.499-19.34-103.204 24.181-133.355 16.044-11.115 35.1-17.070 54.621-17.070h832.229c52.954 0 95.881 42.906 95.881 95.832 0 19.436-5.913 38.413-16.954 54.413l-423.376 512.326c-30.067 43.568-89.777 54.525-133.368 24.474-9.52-6.563-17.774-14.794-24.362-24.294z" />
<glyph unicode="&#xe94b;" glyph-name="question-outline" d="M512 960c282.77 0 512-229.23 512-512s-229.23-512-512-512c-282.77 0-512 229.23-512 512s229.23 512 512 512zM512 896c-247.424 0-448-200.576-448-448s200.576-448 448-448c247.424 0 448 200.576 448 448s-200.576 448-448 448zM464 480l0.438 6.513c3.178 23.429 23.261 41.487 47.562 41.487 26.51 0 48-21.49 48-48v0-288c0-26.51-21.49-48-48-48s-48 21.49-48 48v0 288zM512 736c35.346 0 64-28.654 64-64s-28.654-64-64-64c-35.346 0-64 28.654-64 64s28.654 64 64 64z" />
<glyph unicode="&#xe94c;" glyph-name="warning-outline" d="M616.061 865.797l392.935-718.197c31.932-58.364 11.223-131.963-46.254-164.387-17.686-9.977-37.585-15.213-57.818-15.213h-785.871c-65.752 0-119.054 54.125-119.054 120.891 0 20.545 5.156 40.75 14.982 58.71l392.935 718.197c31.932 58.364 104.412 79.392 161.889 46.968 19.434-10.963 35.457-27.234 46.254-46.968zM563.507 832.143c-5.345 9.77-13.277 17.824-22.899 23.252-28.455 16.052-64.337 5.642-80.145-23.252l-389.056-711.105c-4.864-8.891-7.417-18.894-7.417-29.065 0-33.053 26.388-59.849 58.939-59.849h778.111c10.016 0 19.867 2.592 28.623 7.532 28.455 16.052 38.707 52.488 22.899 81.382l-389.055 711.105zM556.634 587.565v-256.893c0-25.037-19.988-45.334-44.645-45.334s-44.645 20.297-44.645 45.334v256.893c0 25.037 19.988 45.334 44.645 45.334s44.645-20.297 44.645-45.334zM511.989 88.891c-32.876 0-59.527 27.062-59.527 60.445s26.651 60.445 59.527 60.445c32.876 0 59.527-27.062 59.527-60.445s-26.651-60.445-59.527-60.445z" />
<glyph unicode="&#xe94d;" glyph-name="ios-arrow-up" d="M955.166 175.162l-415.15 463.59c-7.331 7.331-19.218 7.331-26.549 0l-415.43-463.59c-13.615-13.615-35.69-13.615-49.305 0s-13.615 35.69 0 49.305l415.43 463.59c34.562 34.562 90.597 34.562 125.159 0l415.15-463.59c13.615-13.615 13.615-35.69 0-49.305s-35.69-13.615-49.305 0z" />
<glyph unicode="&#xe94e;" glyph-name="img" d="M219.429 608.001c0-35.344 28.651-64 64-64s64 28.656 64 64c0 35.348-28.656 64-64 64s-64-28.652-64-64zM889.929 0h-755.86c-73.906 0-134.069 61.411-134.069 136.863v622.275c0 75.451 60.163 136.863 134.069 136.863h755.86c73.907 0 134.071-61.411 134.071-136.863v-622.275c0-75.446-60.158-136.863-134.071-136.863zM65.557 767.49v-640.049c0-35.287 27.926-63.973 62.196-63.973h771.606c34.308 0 62.197 28.686 62.197 63.973v640.049c0 35.249-27.889 63.973-62.197 63.973h-771.606c-34.27 0-62.196-28.724-62.196-63.973zM182.854 148.175c-3.683 0.011-7.345 0.588-10.86 1.72-19.274 6.12-30.060 26.991-24.066 46.666 2.711 8.887 68.754 217.992 209.337 214.258 40.006-1.009 73.509-11.316 105.908-21.282 41.617-12.77 77.605-23.782 125.297-16.017 23.369 3.846 33.021 27.814 49.516 81.647 21.758 70.971 54.639 178.194 199.606 178.194 20.226 0 36.569-16.728 36.569-37.331 0-20.609-16.349-37.335-36.569-37.335-86.823 0-105.913-47.826-129.826-125.851-16.568-54.133-37.27-121.52-107.739-133.018-64.334-10.452-114.034 4.817-157.953 18.216-29.041 8.924-56.5 17.362-86.713 18.11-0.544 0.037-1.093 0.037-1.643 0.037-70.876 0-122.152-116.52-136.010-161.766-4.824-15.978-19.274-26.249-34.854-26.249z" />
<glyph unicode="&#xe94f;" glyph-name="ios-arrow-down" d="M98.178 738.041l415.15-463.59c7.331-7.331 19.218-7.331 26.549 0l415.43 463.59c13.615 13.615 35.69 13.615 49.305 0s13.615-35.69 0-49.305l-415.43-463.59c-34.562-34.562-90.597-34.562-125.159 0l-415.15 463.59c-13.615 13.615-13.615 35.69 0 49.305s35.69 13.615 49.305 0z" />
<glyph unicode="&#xe950;" glyph-name="ios-minus-empty" d="M823.504 521.6c22.365 0 40.496-18.625 40.496-41.6 0-20.886-14.984-38.178-34.511-41.149l-5.984-0.451h-623.009c-22.365 0-40.496 18.625-40.496 41.6 0 20.886 14.984 38.178 34.511 41.149l5.984 0.451h623.009z" />
<glyph unicode="&#xe951;" glyph-name="ios-copy-outline" d="M858.455 864c16.987 0 27.187-1.978 37.85-7.706 10.278-5.52 18.526-13.804 24.022-24.127 4.99-9.371 7.122-18.386 7.577-31.922l0.096-6.092v-564.305c0-17.060-1.97-27.306-7.672-38.015-5.496-10.322-13.745-18.606-24.022-24.127-9.33-5.011-18.306-7.153-31.784-7.61l-6.066-0.096h-122.455v-58.153c0-14.928-1.508-24.638-5.706-34.006l-1.967-4.008c-5.496-10.322-13.745-18.606-24.022-24.127-10.663-5.727-20.864-7.706-37.85-7.706v0h-500.91c-16.987 0-27.187 1.978-37.85 7.706-10.278 5.52-18.526 13.804-24.022 24.127-5.703 10.709-7.672 20.954-7.672 38.015v0 564.305c0 17.060 1.97 27.306 7.672 38.015 5.496 10.322 13.745 18.606 24.022 24.127 10.663 5.727 20.864 7.706 37.85 7.706v0h122.455v58.153c0 17.060 1.97 27.306 7.672 38.015 5.496 10.322 13.745 18.606 24.022 24.127 9.33 5.011 18.306 7.153 31.784 7.61l6.066 0.096h500.91zM671.074 674.756l-513.908-0.188-0.153-2.252v-576.633l0.153-2.221 2.242-0.185 507.047-0.060c2.919 0 4.842 0.019 6.137 0.060v0l2.212 0.185 0.184 2.221 0.060 570.469c0 2.932-0.019 4.863-0.060 6.164v0l-0.184 2.252-3.73 0.188zM864.592 802.722l-515.427-0.154-0.153-2.252-0.052-64.317h317.495c14.863 0 24.531-1.515 33.859-5.73l3.991-1.976c10.278-5.52 18.526-13.804 24.022-24.127 5.703-10.709 7.672-20.954 7.672-38.015v0-444.905l128.592 0.030 2.212 0.185 0.184 2.221 0.060 6.164-0.060 570.469-0.184 2.252-2.212 0.154zM592 256c17.673 0 32-14.327 32-32 0-16.411-12.353-29.936-28.268-31.785l-3.732-0.215h-352c-17.673 0-32 14.327-32 32 0 16.411 12.353 29.936 28.268 31.785l3.732 0.215h352zM592 416c17.673 0 32-14.327 32-32 0-16.411-12.353-29.936-28.268-31.785l-3.732-0.215h-352c-17.673 0-32 14.327-32 32 0 16.411 12.353 29.936 28.268 31.785l3.732 0.215h352zM592 576c17.673 0 32-14.327 32-32 0-16.411-12.353-29.936-28.268-31.785l-3.732-0.215h-352c-17.673 0-32 14.327-32 32 0 16.411 12.353 29.936 28.268 31.785l3.732 0.215h352z" />
<glyph unicode="&#xe952;" glyph-name="ios-skipforward" d="M768 832c-17.673 0-32-14.327-32-32v0-704c0-17.673 14.327-32 32-32s32 14.327 32 32v0 704c0 17.673-14.327 32-32 32zM214.627 822.627c-12.497 12.497-32.758 12.497-45.255 0s-12.497-32.758 0-45.255v0l329.373-329.373-329.373-329.373c-12.497-12.497-12.497-32.758 0-45.255s32.758-12.497 45.255 0v0l352 352c12.497 12.497 12.497 32.758 0 45.255v0z" />
<glyph unicode="&#xe953;" glyph-name="ios-skipbackward" d="M192 832c17.673 0 32-14.327 32-32v0-704c0-17.673-14.327-32-32-32s-32 14.327-32 32v0 704c0 17.673 14.327 32 32 32zM745.373 822.627c12.497 12.497 32.758 12.497 45.255 0s12.497-32.758 0-45.255v0l-329.373-329.373 329.373-329.373c12.497-12.497 12.497-32.758 0-45.255s-32.758-12.497-45.255 0v0l-352 352c-12.497 12.497-12.497 32.758 0 45.255v0z" />
<glyph unicode="&#xe954;" glyph-name="close-outline" d="M512 960c282.77 0 512-229.23 512-512s-229.23-512-512-512c-282.77 0-512 229.23-512 512s229.23 512 512 512zM512 896c-247.424 0-448-200.576-448-448s200.576-448 448-448c247.424 0 448 200.576 448 448s-200.576 448-448 448zM718.361 655.398c18.729-18.729 18.085-34.671 0.117-52.639l-154.788-154.716 154.788-154.801c14.827-14.827 18.491-30.307 4.99-47.043l-4.571-5.059c-18.693-18.693-35.553-16.203-52.139 0.383v0l-154.78 154.809-154.737-154.809c-16.586-16.586-33.445-19.076-52.139-0.383s-15.891 35.793 0.419 52.103l154.745 154.801-154.745 154.716c-16.334 16.334-18.352 30.994-4.512 47.596l4.629 5.042c18.765 18.765 34.934 15.75 51.602-0.919v0l154.737-154.724 154.78 154.724c16.669 16.669 32.837 19.684 51.602 0.919z" />
<glyph unicode="&#xe955;" glyph-name="filter" d="M829.143 896c35.346 0 64-28.654 64-64 0-14.232-4.744-28.058-13.481-39.292l-239.688-308.1 0.026-430.158c0-35.346-28.654-64-64-64-19.442 0-37.83 8.838-49.976 24.020l-128 160c-9.078 11.348-14.024 25.448-14.024 39.98l-0.026 270.158-239.636 308.1c-21.7 27.901-16.674 68.11 11.226 89.811 11.234 8.738 25.060 13.481 39.292 13.481h634.286z" />
<glyph unicode="&#xe956;" glyph-name="alert-outline" d="M512 960c282.77 0 512-229.23 512-512s-229.23-512-512-512c-282.77 0-512 229.23-512 512s229.23 512 512 512zM512 886.857c-242.374 0-438.857-196.483-438.857-438.857s196.483-438.857 438.857-438.857c242.374 0 438.857 196.483 438.857 438.857s-196.483 438.857-438.857 438.857zM512 228.571c30.297 0 54.857-24.56 54.857-54.857s-24.56-54.857-54.857-54.857c-30.297 0-54.857 24.56-54.857 54.857s24.56 54.857 54.857 54.857zM512 777.143c20.198 0 36.571-16.374 36.571-36.571v-402.286c0-20.198-16.374-36.571-36.571-36.571s-36.571 16.374-36.571 36.571v402.286c0 20.198 16.374 36.571 36.571 36.571z" />
<glyph unicode="&#xe957;" glyph-name="rotate-left" d="M704 448c35.346 0 64-28.654 64-64v-384c0-35.346-28.654-64-64-64h-640c-35.346 0-64 28.654-64 64v384c0 35.346 28.654 64 64 64h640zM704 384h-640v-384h640v384zM555.647 950.627c11.108-11.108 12.342-28.351 3.703-40.823l-3.703-4.432-131.74-131.667c9.664 0.462 19.365 0.695 29.095 0.695 314.999 0 571.003-243.179 571.003-544 0-17.673-14.327-32-32-32s-32 14.327-32 32c0 264.718-226.636 480-507.003 480-6.311 0-12.606-0.109-18.884-0.326l121.529-121.485c11.108-11.108 12.342-28.351 3.703-40.823l-3.703-4.432c-11.108-11.108-28.351-12.342-40.823-3.703l-4.432 3.703-181.019 181.019c-11.108 11.108-12.342 28.351-3.703 40.823l3.703 4.432 181.019 181.019c12.497 12.497 32.758 12.497 45.255 0z" />
<glyph unicode="&#xe958;" glyph-name="rotate-right" d="M320.006 448c-35.346 0-64-28.654-64-64v-384c0-35.346 28.654-64 64-64h640c35.346 0 64 28.654 64 64v384c0 35.346-28.654 64-64 64h-640zM320.006 384h640v-384h-640v384zM468.359 950.627c-11.108-11.108-12.342-28.351-3.703-40.823l3.703-4.432 131.74-131.667c-9.664 0.462-19.365 0.695-29.095 0.695-314.999 0-571.003-243.179-571.003-544 0-17.673 14.327-32 32-32s32 14.327 32 32c0 264.718 226.636 480 507.003 480 6.311 0 12.606-0.109 18.884-0.326l-121.529-121.485c-11.108-11.108-12.342-28.351-3.703-40.823l3.703-4.432c11.108-11.108 28.351-12.342 40.823-3.703l4.432 3.703 181.019 181.019c11.108 11.108 12.342 28.351 3.703 40.823l-3.703 4.432-181.019 181.019c-12.497 12.497-32.758 12.497-45.255 0z" />
<glyph unicode="&#xe959;" glyph-name="android-download" d="M512 832c157.225 0 287.966-113.388 314.912-262.852 112.967-26.546 197.088-128.023 197.088-249.148 0-137.101-107.774-249.029-243.223-255.687l-12.777-0.313h-512c-141.385 0-256 114.615-256 256 0 121.125 84.121 222.603 197.128 249.198 26.905 149.414 157.647 262.802 314.872 262.802zM512 640c-17.673 0-32-14.327-32-32v0l-0.057-288h-82.688c-8.487 0-16.626-3.371-22.627-9.373-12.497-12.497-12.497-32.758 0-45.255v0l114.745-114.745c12.497-12.497 32.758-12.497 45.255 0v0l114.745 114.745c6.001 6.001 9.373 14.14 9.373 22.627 0 17.673-14.327 32-32 32v0h-82.802l0.057 288-0.516 5.752c-2.71 14.928-15.775 26.248-31.484 26.248z" />
</font>
</defs>
</svg>
